  0
SECTION
  2
HEADER
  9
$ACADVER
  1
AC1021
  9
$ACADMAINTVER
 70
    25
  9
$DWGCODEPAGE
  3
ANSI_1252
  9
$INSBASE
 10
0.0
 20
0.0
 30
0.0
  9
$EXTMIN
 10
0.0
 20
0.0
 30
0.0
  9
$EXTMAX
 10
420.0
 20
297.0
 30
0.0
  9
$LIMMIN
 10
0.0
 20
0.0
  9
$LIMMAX
 10
420.0
 20
297.0
  9
$ORTHOMODE
 70
     0
  9
$REGENMODE
 70
     1
  9
$FILLMODE
 70
     1
  9
$QTEXTMODE
 70
     0
  9
$MIRRTEXT
 70
     1
  9
$LTSCALE
 40
1.0
  9
$ATTMODE
 70
     1
  9
$TEXTSIZE
 40
1.8
  9
$TRACEWID
 40
1.0
  9
$TEXTSTYLE
  7
Standard
  9
$CLAYER
  8
0
  9
$CELTYPE
  6
ByLayer
  9
$CECOLOR
 62
   256
  9
$CELTSCALE
 40
1.0
  9
$DISPSILH
 70
     0
  9
$DIMSCALE
 40
1.0
  9
$DIMASZ
 40
2.5
  9
$DIMEXO
 40
0.625
  9
$DIMDLI
 40
3.75
  9
$DIMRND
 40
0.0
  9
$DIMDLE
 40
0.0
  9
$DIMEXE
 40
1.25
  9
$DIMTP
 40
0.0
  9
$DIMTM
 40
0.0
  9
$DIMTXT
 40
2.5
  9
$DIMCEN
 40
2.5
  9
$DIMTSZ
 40
0.0
  9
$DIMTOL
 70
     0
  9
$DIMLIM
 70
     0
  9
$DIMTIH
 70
     0
  9
$DIMTOH
 70
     0
  9
$DIMSE1
 70
     0
  9
$DIMSE2
 70
     0
  9
$DIMTAD
 70
     1
  9
$DIMZIN
 70
     8
  9
$DIMBLK
  1

  9
$DIMASO
 70
     1
  9
$DIMSHO
 70
     1
  9
$DIMPOST
  1

  9
$DIMAPOST
  1

  9
$DIMALT
 70
     0
  9
$DIMALTD
 70
     3
  9
$DIMALTF
 40
0.0393700787
  9
$DIMLFAC
 40
1.0
  9
$DIMTOFL
 70
     1
  9
$DIMTVP
 40
0.0
  9
$DIMTIX
 70
     0
  9
$DIMSOXD
 70
     0
  9
$DIMSAH
 70
     0
  9
$DIMBLK1
  1

  9
$DIMBLK2
  1

  9
$DIMSTYLE
  2
ISO-25
  9
$DIMCLRD
 70
     0
  9
$DIMCLRE
 70
     0
  9
$DIMCLRT
 70
     0
  9
$DIMTFAC
 40
1.0
  9
$DIMGAP
 40
0.625
  9
$DIMJUST
 70
     0
  9
$DIMSD1
 70
     0
  9
$DIMSD2
 70
     0
  9
$DIMTOLJ
 70
     0
  9
$DIMTZIN
 70
     8
  9
$DIMALTZ
 70
     0
  9
$DIMALTTZ
 70
     0
  9
$DIMUPT
 70
     0
  9
$DIMDEC
 70
     2
  9
$DIMTDEC
 70
     2
  9
$DIMALTU
 70
     2
  9
$DIMALTTD
 70
     3
  9
$DIMTXSTY
  7
Standard
  9
$DIMAUNIT
 70
     0
  9
$DIMADEC
 70
     0
  9
$DIMALTRND
 40
0.0
  9
$DIMAZIN
 70
     0
  9
$DIMDSEP
 70
    44
  9
$DIMATFIT
 70
     3
  9
$DIMFRAC
 70
     0
  9
$DIMLDRBLK
  1

  9
$DIMLUNIT
 70
     2
  9
$DIMLWD
 70
    -2
  9
$DIMLWE
 70
    -2
  9
$DIMTMOVE
 70
     0
  9
$DIMFXL
 40
1.0
  9
$DIMFXLON
 70
     0
  9
$DIMJOGANG
 40
0.7853981634
  9
$DIMTFILL
 70
     0
  9
$DIMTFILLCLR
 70
     0
  9
$DIMARCSYM
 70
     0
  9
$DIMLTYPE
  6

  9
$DIMLTEX1
  6

  9
$DIMLTEX2
  6

  9
$LUNITS
 70
     2
  9
$LUPREC
 70
     4
  9
$SKETCHINC
 40
1.0
  9
$FILLETRAD
 40
10.0
  9
$AUNITS
 70
     0
  9
$AUPREC
 70
     0
  9
$MENU
  1
.
  9
$ELEVATION
 40
0.0
  9
$PELEVATION
 40
0.0
  9
$THICKNESS
 40
0.0
  9
$LIMCHECK
 70
     0
  9
$CHAMFERA
 40
0.0
  9
$CHAMFERB
 40
0.0
  9
$CHAMFERC
 40
0.0
  9
$CHAMFERD
 40
0.0
  9
$SKPOLY
 70
     0
  9
$TDCREATE
 40
2459326.639750012
  9
$TDUCREATE
 40
2459326.556416678
  9
$TDUPDATE
 40
2459326.639753565
  9
$TDUUPDATE
 40
2459326.556420232
  9
$TDINDWG
 40
0.0000000116
  9
$TDUSRTIMER
 40
0.0000000116
  9
$USRTIMER
 70
     1
  9
$ANGBASE
 50
0.0
  9
$ANGDIR
 70
     0
  9
$PDMODE
 70
     0
  9
$PDSIZE
 40
0.0
  9
$PLINEWID
 40
0.0
  9
$SPLFRAME
 70
     0
  9
$SPLINETYPE
 70
     6
  9
$SPLINESEGS
 70
     8
  9
$HANDSEED
  5
334
  9
$SURFTAB1
 70
     6
  9
$SURFTAB2
 70
     6
  9
$SURFTYPE
 70
     6
  9
$SURFU
 70
     6
  9
$SURFV
 70
     6
  9
$UCSBASE
  2

  9
$UCSNAME
  2

  9
$UCSORG
 10
0.0
 20
0.0
 30
0.0
  9
$UCSXDIR
 10
1.0
 20
0.0
 30
0.0
  9
$UCSYDIR
 10
0.0
 20
1.0
 30
0.0
  9
$UCSORTHOREF
  2

  9
$UCSORTHOVIEW
 70
     0
  9
$UCSORGTOP
 10
0.0
 20
0.0
 30
0.0
  9
$UCSORGBOTTOM
 10
0.0
 20
0.0
 30
0.0
  9
$UCSORGLEFT
 10
0.0
 20
0.0
 30
0.0
  9
$UCSORGRIGHT
 10
0.0
 20
0.0
 30
0.0
  9
$UCSORGFRONT
 10
0.0
 20
0.0
 30
0.0
  9
$UCSORGBACK
 10
0.0
 20
0.0
 30
0.0
  9
$PUCSBASE
  2

  9
$PUCSNAME
  2

  9
$PUCSORG
 10
0.0
 20
0.0
 30
0.0
  9
$PUCSXDIR
 10
1.0
 20
0.0
 30
0.0
  9
$PUCSYDIR
 10
0.0
 20
1.0
 30
0.0
  9
$PUCSORTHOREF
  2

  9
$PUCSORTHOVIEW
 70
     0
  9
$PUCSORGTOP
 10
0.0
 20
0.0
 30
0.0
  9
$PUCSORGBOTTOM
 10
0.0
 20
0.0
 30
0.0
  9
$PUCSORGLEFT
 10
0.0
 20
0.0
 30
0.0
  9
$PUCSORGRIGHT
 10
0.0
 20
0.0
 30
0.0
  9
$PUCSORGFRONT
 10
0.0
 20
0.0
 30
0.0
  9
$PUCSORGBACK
 10
0.0
 20
0.0
 30
0.0
  9
$USERI1
 70
     0
  9
$USERI2
 70
     0
  9
$USERI3
 70
     0
  9
$USERI4
 70
     0
  9
$USERI5
 70
     0
  9
$USERR1
 40
0.0
  9
$USERR2
 40
0.0
  9
$USERR3
 40
0.0
  9
$USERR4
 40
0.0
  9
$USERR5
 40
0.0
  9
$WORLDVIEW
 70
     1
  9
$SHADEDGE
 70
     3
  9
$SHADEDIF
 70
    70
  9
$TILEMODE
 70
     1
  9
$MAXACTVP
 70
    64
  9
$PINSBASE
 10
0.0
 20
0.0
 30
0.0
  9
$PLIMCHECK
 70
     0
  9
$PEXTMIN
 10
0.0
 20
0.0
 30
0.0
  9
$PEXTMAX
 10
420.0
 20
297.0
 30
0.0
  9
$PLIMMIN
 10
0.0
 20
0.0
  9
$PLIMMAX
 10
420.0
 20
297.0
  9
$UNITMODE
 70
     0
  9
$VISRETAIN
 70
     1
  9
$PLINEGEN
 70
     0
  9
$PSLTSCALE
 70
     1
  9
$TREEDEPTH
 70
  3020
  9
$CMLSTYLE
  2
Standard
  9
$CMLJUST
 70
     0
  9
$CMLSCALE
 40
20.0
  9
$PROXYGRAPHICS
 70
     1
  9
$MEASUREMENT
 70
     1
  9
$CELWEIGHT
370
    -1
  9
$ENDCAPS
280
     0
  9
$JOINSTYLE
280
     0
  9
$LWDISPLAY
290
     0
  9
$INSUNITS
 70
     4
  9
$HYPERLINKBASE
  1

  9
$STYLESHEET
  1

  9
$XEDIT
290
     1
  9
$CEPSNTYPE
380
     0
  9
$PSTYLEMODE
290
     1
  9
$FINGERPRINTGUID
  2
{4f4d457b-06bb-43ba-a8a7-2d91db28d2e3}
  9
$VERSIONGUID
  2
{FAEB1C32-E019-11D5-929B-00C0DF256EC4}
  9
$EXTNAMES
290
     1
  9
$PSVPSCALE
 40
0.0
  9
$OLESTARTUP
290
     0
  9
$SORTENTS
280
   127
  9
$INDEXCTL
280
     0
  9
$HIDETEXT
280
     1
  9
$XCLIPFRAME
290
     0
  9
$HALOGAP
280
     0
  9
$OBSCOLOR
 70
   257
  9
$OBSLTYPE
280
     0
  9
$INTERSECTIONDISPLAY
280
     0
  9
$INTERSECTIONCOLOR
 70
   257
  9
$DIMASSOC
280
     2
  9
$PROJECTNAME
  1

  9
$CAMERADISPLAY
290
     0
  9
$LENSLENGTH
 40
50.0
  9
$CAMERAHEIGHT
 40
0.0
  9
$STEPSPERSEC
 40
2.0
  9
$STEPSIZE
 40
6.0
  9
$3DDWFPREC
 40
2.0
  9
$PSOLWIDTH
 40
5.0
  9
$PSOLHEIGHT
 40
80.0
  9
$LOFTANG1
 40
1.5707963268
  9
$LOFTANG2
 40
1.5707963268
  9
$LOFTMAG1
 40
0.0
  9
$LOFTMAG2
 40
0.0
  9
$LOFTPARAM
 70
     7
  9
$LOFTNORMALS
280
     1
  9
$LATITUDE
 40
37.795
  9
$LONGITUDE
 40
-122.394
  9
$NORTHDIRECTION
 40
0.0
  9
$TIMEZONE
 70
 -8000
  9
$LIGHTGLYPHDISPLAY
280
     1
  9
$TILEMODELIGHTSYNCH
280
     1
  9
$CMATERIAL
347
44
  9
$SOLIDHIST
280
     0
  9
$SHOWHIST
280
     1
  9
$DWFFRAME
280
     2
  9
$DGNFRAME
280
     2
  9
$REALWORLDSCALE
290
     1
  9
$INTERFERECOLOR
 62
   256
  9
$CSHADOW
280
     0
  9
$SHADOWPLANELOCATION
 40
0.0
  0
ENDSEC
  0
SECTION
  2
CLASSES
  0
CLASS
  1
ACDBDICTIONARYWDFLT
  2
AcDbDictionaryWithDefault
  3
ObjectDBX Classes
 90
        0
 91
        3
280
     0
281
     0
  0
CLASS
  1
VISUALSTYLE
  2
AcDbVisualStyle
  3
ObjectDBX Classes
 90
     4095
 91
        3
280
     0
281
     0
  0
CLASS
  1
MATERIAL
  2
AcDbMaterial
  3
ObjectDBX Classes
 90
     1153
 91
        3
280
     0
281
     0
  0
CLASS
  1
SCALE
  2
AcDbScale
  3
ObjectDBX Classes
 90
     1153
 91
        3
280
     0
281
     0
  0
CLASS
  1
TABLESTYLE
  2
AcDbTableStyle
  3
ObjectDBX Classes
 90
     4095
 91
        3
280
     0
281
     0
  0
CLASS
  1
MLEADERSTYLE
  2
AcDbMLeaderStyle
  3
ACDB_MLEADERSTYLE_CLASS
 90
     4095
 91
        3
280
     0
281
     0
  0
CLASS
  1
SUN
  2
AcDbSun
  3
SCENEOE
 90
     1153
 91
        3
280
     0
281
     0
  0
CLASS
  1
RASTERVARIABLES
  2
AcDbRasterVariables
  3
ISM
 90
        0
 91
        3
280
     0
281
     0
  0
CLASS
  1
IMAGEDEF
  2
AcDbRasterImageDef
  3
ISM
 90
        0
 91
        3
280
     0
281
     0
  0
CLASS
  1
MULTILEADER
  2
AcDbMLeader
  3
ACDB_MLEADER_CLASS
 90
     1025
 91
        3
280
     0
281
     1
  0
CLASS
  1
IMAGE
  2
AcDbRasterImage
  3
ISM
 90
      127
 91
        4
280
     0
281
     1
  0
CLASS
  1
DICTIONARYVAR
  2
AcDbDictionaryVar
  3
ObjectDBX Classes
 90
        0
 91
        3
280
     0
281
     0
  0
CLASS
  1
CELLSTYLEMAP
  2
AcDbCellStyleMap
  3
ObjectDBX Classes
 90
     1152
 91
        3
280
     0
281
     0
  0
ENDSEC
  0
SECTION
  2
TABLES
  0
TABLE
  2
VPORT
  5
8
330
0
100
AcDbSymbolTable
 70
     1
  0
VPORT
  5
29
330
8
100
AcDbSymbolTableRecord
100
AcDbViewportTableRecord
  2
*Active
 70
     0
 10
0.0
 20
0.0
 11
1.0
 21
1.0
 12
344.1869158879
 22
148.5
 13
0.0
 23
0.0
 14
10.0
 24
10.0
 15
10.0
 25
10.0
 16
0.0
 26
0.0
 36
1.0
 17
0.0
 27
0.0
 37
0.0
 40
297.0
 41
1.9729729729
 42
50.0
 43
0.0
 44
0.0
 50
0.0
 51
0.0
 71
     0
 72
   100
 73
     1
 74
     3
 75
     0
 76
     0
 77
     0
 78
     0
281
     0
 65
     1
110
0.0
120
0.0
130
0.0
111
1.0
121
0.0
131
0.0
112
0.0
122
1.0
132
0.0
 79
     0
146
0.0
348
2F
 60
     3
 61
     5
292
     1
282
     1
141
0.0
142
0.0
 63
   250
361
6D
  0
ENDTAB
  0
TABLE
  2
LTYPE
  5
5
330
0
100
AcDbSymbolTable
 70
     2
  0
LTYPE
  5
14
330
5
100
AcDbSymbolTableRecord
100
AcDbLinetypeTableRecord
  2
ByBlock
 70
     0
  3

 72
    65
 73
     0
 40
0.0
  0
LTYPE
  5
15
330
5
100
AcDbSymbolTableRecord
100
AcDbLinetypeTableRecord
  2
ByLayer
 70
     0
  3

 72
    65
 73
     0
 40
0.0
  0
LTYPE
  5
16
330
5
100
AcDbSymbolTableRecord
100
AcDbLinetypeTableRecord
  2
Continuous
 70
     0
  3
Solid line
 72
    65
 73
     0
 40
0.0
  0
LTYPE
  5
74
330
5
100
AcDbSymbolTableRecord
100
AcDbLinetypeTableRecord
  2
HIDDEN2
 70
     0
  3
Hidden (.5x) _ _ _ _ _ _ _ _ _ _ _ _ _ _ _ _ _ 
 72
    65
 73
     2
 40
4.7625
 49
3.175
 74
     4
 75
     0
340
0
 46
0.0
 50
0.0
 44
0.0
 45
0.0
 49
-1.5875
 74
     4
 75
     0
340
0
 46
0.0
 50
0.0
 44
0.0
 45
0.0
  0
ENDTAB
  0
TABLE
  2
LAYER
  5
2
330
0
100
AcDbSymbolTable
 70
     8
  0
LAYER
  5
10
330
2
100
AcDbSymbolTableRecord
100
AcDbLayerTableRecord
  2
0
 70
     0
 62
     7
  6
Continuous
370
    -3
390
F
347
46
  0
LAYER
  5
6E
330
2
100
AcDbSymbolTableRecord
100
AcDbLayerTableRecord
  2
Standard
 70
     0
 62
     7
  6
Continuous
370
    -3
390
F
347
46
  0
LAYER
  5
73
330
2
100
AcDbSymbolTableRecord
100
AcDbLayerTableRecord
  2
DV1_Standard
 70
     0
 62
     7
  6
Continuous
370
    -3
390
F
347
46
  0
LAYER
  5
23C
330
2
100
AcDbSymbolTableRecord
100
AcDbLayerTableRecord
  2
DIN-Vorlage
 70
     0
 62
     7
  6
Continuous
370
    -3
390
F
347
46
  0
LAYER
  5
272
330
2
100
AcDbSymbolTableRecord
100
AcDbLayerTableRecord
  2
KBP_KOPF
 70
     0
 62
     7
  6
Continuous
370
    -3
390
F
347
46
  0
LAYER
  5
273
330
2
100
AcDbSymbolTableRecord
100
AcDbLayerTableRecord
  2
Default
 70
     0
 62
     7
  6
Continuous
370
    -3
390
F
347
46
  0
LAYER
  5
292
330
2
100
AcDbSymbolTableRecord
100
AcDbLayerTableRecord
  2
KBP_LOGO
 70
     0
 62
     7
  6
Continuous
370
    -3
390
F
347
46
  0
LAYER
  5
293
330
2
100
AcDbSymbolTableRecord
100
AcDbLayerTableRecord
  2
KBP-Kopf
 70
     0
 62
     7
  6
Continuous
370
    -3
390
F
347
46
  0
ENDTAB
  0
TABLE
  2
STYLE
  5
3
330
0
100
AcDbSymbolTable
 70
     3
  0
STYLE
  5
11
330
3
100
AcDbSymbolTableRecord
100
AcDbTextStyleTableRecord
  2
Standard
 70
     0
 40
0.0
 41
1.0
 50
0.0
 71
     0
 42
1.8
  3
txt
  4

  0
STYLE
  5
206
330
3
100
AcDbSymbolTableRecord
100
AcDbTextStyleTableRecord
  2
SEACAD_Solid_Edge_ANSI
 70
     0
 40
0.0
 41
1.0
 50
0.0
 71
     0
 42
5.25
  3
seans.ttf
  4

1001
ACAD
1000
Solid Edge ANSI
1071
        0
  0
STYLE
  5
23D
330
3
100
AcDbSymbolTableRecord
100
AcDbTextStyleTableRecord
  2
SEACAD_Solid_Edge_ISO
 70
     0
 40
0.0
 41
0.9
 50
0.0
 71
     0
 42
3.5
  3
seiso.ttf
  4

1001
ACAD
1000
Solid Edge ISO
1071
        0
  0
ENDTAB
  0
TABLE
  2
VIEW
  5
6
330
0
100
AcDbSymbolTable
 70
     0
  0
ENDTAB
  0
TABLE
  2
UCS
  5
7
330
0
100
AcDbSymbolTable
 70
     0
  0
ENDTAB
  0
TABLE
  2
APPID
  5
9
330
0
100
AcDbSymbolTable
 70
     2
  0
APPID
  5
12
330
9
100
AcDbSymbolTableRecord
100
AcDbRegAppTableRecord
  2
ACAD
 70
     0
  0
APPID
  5
2F5
330
9
100
AcDbSymbolTableRecord
100
AcDbRegAppTableRecord
  2
ACAD_MLEADERVER
 70
     0
  0
ENDTAB
  0
TABLE
  2
DIMSTYLE
  5
A
330
0
100
AcDbSymbolTable
 70
     3
100
AcDbDimStyleTable
  0
DIMSTYLE
105
27
330
A
100
AcDbSymbolTableRecord
100
AcDbDimStyleTableRecord
  2
ISO-25
 70
     0
 41
2.5
 42
0.625
 43
3.75
 44
1.25
 73
     0
 74
     0
 77
     1
 78
     8
140
2.5
141
2.5
143
0.0393700787
147
0.625
171
     3
172
     1
178
     0
271
     2
272
     2
274
     3
278
    44
283
     0
284
     8
340
11
  0
DIMSTYLE
105
1F7
330
A
100
AcDbSymbolTableRecord
100
AcDbDimStyleTableRecord
  2
Standard
 70
     0
178
     0
340
11
  0
DIMSTYLE
105
207
102
{ACAD_REACTORS
330
208
330
212
330
21C
330
226
330
231
102
}
330
A
100
AcDbSymbolTableRecord
100
AcDbDimStyleTableRecord
  2
DIN
 70
     0
 41
3.5
 42
0.0
 44
1.75
 73
     0
 74
     0
 77
     1
 78
     8
140
3.5
141
1.75
143
0.0393700787
147
0.875
172
     1
173
     1
178
     0
271
     2
272
     2
278
    44
283
     0
284
     8
340
206
343
201
344
201
  0
ENDTAB
  0
TABLE
  2
BLOCK_RECORD
  5
1
330
0
100
AcDbSymbolTable
 70
    25
  0
BLOCK_RECORD
  5
1F
330
1
100
AcDbSymbolTableRecord
100
AcDbBlockTableRecord
  2
*Model_Space
340
22
 70
     0
280
     1
281
     0
  0
BLOCK_RECORD
  5
1B
330
1
100
AcDbSymbolTableRecord
100
AcDbBlockTableRecord
  2
*Paper_Space
340
1E
 70
     0
280
     1
281
     0
  0
BLOCK_RECORD
  5
71
330
1
100
AcDbSymbolTableRecord
100
AcDbBlockTableRecord
  2
SE
340
0
102
{BLKREFS
331
72
102
}
 70
     0
280
     1
281
     0
  0
BLOCK_RECORD
  5
1F8
330
1
100
AcDbSymbolTableRecord
100
AcDbBlockTableRecord
  2
_Oblique
340
0
 70
     0
280
     1
281
     0
  0
BLOCK_RECORD
  5
1FC
330
1
100
AcDbSymbolTableRecord
100
AcDbBlockTableRecord
  2
_Dot
340
0
 70
     0
280
     1
281
     0
  0
BLOCK_RECORD
  5
201
330
1
100
AcDbSymbolTableRecord
100
AcDbBlockTableRecord
  2
_SE_FILLED
340
0
 70
     0
280
     1
281
     0
  0
BLOCK_RECORD
  5
209
330
1
100
AcDbSymbolTableRecord
100
AcDbBlockTableRecord
  2
DMBLK68
340
0
 70
     0
280
     1
281
     0
  0
BLOCK_RECORD
  5
213
330
1
100
AcDbSymbolTableRecord
100
AcDbBlockTableRecord
  2
DMBLK69
340
0
 70
     0
280
     1
281
     0
  0
BLOCK_RECORD
  5
21D
330
1
100
AcDbSymbolTableRecord
100
AcDbBlockTableRecord
  2
DMBLK70
340
0
 70
     0
280
     1
281
     0
  0
BLOCK_RECORD
  5
227
330
1
100
AcDbSymbolTableRecord
100
AcDbBlockTableRecord
  2
DMBLK71
340
0
 70
     0
280
     1
281
     0
  0
BLOCK_RECORD
  5
232
330
1
100
AcDbSymbolTableRecord
100
AcDbBlockTableRecord
  2
DMBLK72
340
0
 70
     0
280
     1
281
     0
  0
BLOCK_RECORD
  5
23E
330
1
100
AcDbSymbolTableRecord
100
AcDbBlockTableRecord
  2
Rahmen_A3-quer
340
0
102
{BLKREFS
331
271
102
}
 70
     0
280
     1
281
     0
  0
BLOCK_RECORD
  5
274
330
1
100
AcDbSymbolTableRecord
100
AcDbBlockTableRecord
  2
SEANNOT_GROUP
340
0
102
{BLKREFS
331
2BC
102
}
 70
     0
280
     1
281
     0
  0
BLOCK_RECORD
  5
277
330
1
100
AcDbSymbolTableRecord
100
AcDbBlockTableRecord
  2
SEANNOT_GROUP1
340
0
102
{BLKREFS
331
2BE
102
}
 70
     0
280
     1
281
     0
  0
BLOCK_RECORD
  5
27A
330
1
100
AcDbSymbolTableRecord
100
AcDbBlockTableRecord
  2
SEANNOT_GROUP2
340
0
102
{BLKREFS
331
2C0
102
}
 70
     0
280
     1
281
     0
  0
BLOCK_RECORD
  5
27D
330
1
100
AcDbSymbolTableRecord
100
AcDbBlockTableRecord
  2
SEANNOT_GROUP3
340
0
102
{BLKREFS
331
2C2
102
}
 70
     0
280
     1
281
     0
  0
BLOCK_RECORD
  5
280
330
1
100
AcDbSymbolTableRecord
100
AcDbBlockTableRecord
  2
SEANNOT_GROUP4
340
0
102
{BLKREFS
331
2C4
102
}
 70
     0
280
     1
281
     0
  0
BLOCK_RECORD
  5
283
330
1
100
AcDbSymbolTableRecord
100
AcDbBlockTableRecord
  2
SEANNOT_GROUP5
340
0
102
{BLKREFS
331
2C8
102
}
 70
     0
280
     1
281
     0
  0
BLOCK_RECORD
  5
286
330
1
100
AcDbSymbolTableRecord
100
AcDbBlockTableRecord
  2
SEANNOT_GROUP6
340
0
102
{BLKREFS
331
2CA
102
}
 70
     0
280
     1
281
     0
  0
BLOCK_RECORD
  5
28C
330
1
100
AcDbSymbolTableRecord
100
AcDbBlockTableRecord
  2
SEANNOT_GROUP7
340
0
102
{BLKREFS
331
2CE
102
}
 70
     0
280
     1
281
     0
  0
BLOCK_RECORD
  5
28F
330
1
100
AcDbSymbolTableRecord
100
AcDbBlockTableRecord
  2
SEANNOT_GROUP8
340
0
102
{BLKREFS
331
2D0
102
}
 70
     0
280
     1
281
     0
  0
BLOCK_RECORD
  5
294
330
1
100
AcDbSymbolTableRecord
100
AcDbBlockTableRecord
  2
SEANNOT_GROUP9
340
0
102
{BLKREFS
331
2D9
102
}
 70
     0
280
     1
281
     0
  0
BLOCK_RECORD
  5
297
330
1
100
AcDbSymbolTableRecord
100
AcDbBlockTableRecord
  2
SEANNOT_GROUP10
340
0
102
{BLKREFS
331
2DE
102
}
 70
     0
280
     1
281
     0
  0
BLOCK_RECORD
  5
29A
330
1
100
AcDbSymbolTableRecord
100
AcDbBlockTableRecord
  2
SEANNOT_GROUP11
340
0
102
{BLKREFS
331
2E1
102
}
 70
     0
280
     1
281
     0
  0
BLOCK_RECORD
  5
29D
330
1
100
AcDbSymbolTableRecord
100
AcDbBlockTableRecord
  2
SEANNOT_GROUP12
340
0
102
{BLKREFS
331
2EB
102
}
 70
     0
280
     1
281
     0
  0
BLOCK_RECORD
  5
2A0
330
1
100
AcDbSymbolTableRecord
100
AcDbBlockTableRecord
  2
Schriftfeld
340
0
102
{BLKREFS
331
2EF
102
}
 70
     0
280
     1
281
     0
  0
BLOCK_RECORD
  5
2F0
330
1
100
AcDbSymbolTableRecord
100
AcDbBlockTableRecord
  2
Dokument_schriftlich
340
0
102
{BLKREFS
331
2F4
102
}
 70
     0
280
     1
281
     0
  0
ENDTAB
  0
ENDSEC
  0
SECTION
  2
BLOCKS
  0
BLOCK
  5
20
330
1F
100
AcDbEntity
  8
0
100
AcDbBlockBegin
  2
*Model_Space
 70
     0
 10
0.0
 20
0.0
 30
0.0
  3
*Model_Space
  1

  0
ENDBLK
  5
21
330
1F
100
AcDbEntity
  8
0
100
AcDbBlockEnd
  0
BLOCK
  5
1C
330
1B
100
AcDbEntity
 67
     1
  8
0
100
AcDbBlockBegin
  2
*Paper_Space
 70
     0
 10
0.0
 20
0.0
 30
0.0
  3
*Paper_Space
  1

  0
ENDBLK
  5
1D
330
1B
100
AcDbEntity
 67
     1
  8
0
100
AcDbBlockEnd
  0
BLOCK
  5
1F5
330
71
100
AcDbEntity
  8
0
100
AcDbBlockBegin
  2
SE
 70
     0
 10
0.0
 20
0.0
 30
0.0
  3
SE
  1

  0
ARC
  5
75
330
71
100
AcDbEntity
  8
DV1_Standard
  6
HIDDEN2
 62
     7
100
AcDbCircle
 10
121.4569682611
 20
125.9320564743
 30
0.0
 40
2.5
100
AcDbArc
 50
343.3354286262
 51
351.890385544
  0
ARC
  5
76
330
71
100
AcDbEntity
  8
DV1_Standard
  6
HIDDEN2
 62
     7
100
AcDbCircle
 10
121.4569682611
 20
125.9320564743
 30
0.0
 40
2.5
100
AcDbArc
 50
278.109614456
 51
286.6645713738
  0
ARC
  5
77
330
71
100
AcDbEntity
  8
DV1_Standard
  6
HIDDEN2
 62
     7
100
AcDbCircle
 10
121.4569682611
 20
125.9320564743
 30
0.0
 40
2.5
100
AcDbArc
 50
253.3354286262
 51
261.890385544
  0
ARC
  5
78
330
71
100
AcDbEntity
  8
DV1_Standard
  6
HIDDEN2
 62
     7
100
AcDbCircle
 10
121.4569682611
 20
125.9320564743
 30
0.0
 40
2.5
100
AcDbArc
 50
188.109614456
 51
196.6645713738
  0
ARC
  5
79
330
71
100
AcDbEntity
  8
DV1_Standard
  6
HIDDEN2
 62
     7
100
AcDbCircle
 10
121.4569682611
 20
125.9320564743
 30
0.0
 40
2.5
100
AcDbArc
 50
163.3354286262
 51
171.890385544
  0
ARC
  5
7A
330
71
100
AcDbEntity
  8
DV1_Standard
  6
HIDDEN2
 62
     7
100
AcDbCircle
 10
121.4569682611
 20
125.9320564743
 30
0.0
 40
2.5
100
AcDbArc
 50
98.109614456
 51
106.6645713738
  0
ARC
  5
7B
330
71
100
AcDbEntity
  8
DV1_Standard
  6
HIDDEN2
 62
     7
100
AcDbCircle
 10
121.4569682611
 20
125.9320564743
 30
0.0
 40
2.5
100
AcDbArc
 50
73.3354286262
 51
81.890385544
  0
ARC
  5
7C
330
71
100
AcDbEntity
  8
DV1_Standard
  6
HIDDEN2
 62
     7
100
AcDbCircle
 10
121.4569682611
 20
125.9320564743
 30
0.0
 40
2.5
100
AcDbArc
 50
8.109614456
 51
16.6645713738
  0
ARC
  5
7D
330
71
100
AcDbEntity
  8
DV1_Standard
  6
HIDDEN2
 62
     7
100
AcDbCircle
 10
283.4569682611
 20
155.9320564743
 30
0.0
 40
2.5
100
AcDbArc
 50
343.3354286262
 51
351.890385544
  0
ARC
  5
7E
330
71
100
AcDbEntity
  8
DV1_Standard
  6
HIDDEN2
 62
     7
100
AcDbCircle
 10
283.4569682611
 20
155.9320564743
 30
0.0
 40
2.5
100
AcDbArc
 50
278.109614456
 51
286.6645713738
  0
ARC
  5
7F
330
71
100
AcDbEntity
  8
DV1_Standard
  6
HIDDEN2
 62
     7
100
AcDbCircle
 10
283.4569682611
 20
155.9320564743
 30
0.0
 40
2.5
100
AcDbArc
 50
253.3354286262
 51
261.890385544
  0
ARC
  5
80
330
71
100
AcDbEntity
  8
DV1_Standard
  6
HIDDEN2
 62
     7
100
AcDbCircle
 10
283.4569682611
 20
155.9320564743
 30
0.0
 40
2.5
100
AcDbArc
 50
188.109614456
 51
196.6645713738
  0
ARC
  5
81
330
71
100
AcDbEntity
  8
DV1_Standard
  6
HIDDEN2
 62
     7
100
AcDbCircle
 10
283.4569682611
 20
155.9320564743
 30
0.0
 40
2.5
100
AcDbArc
 50
163.3354286262
 51
171.890385544
  0
ARC
  5
82
330
71
100
AcDbEntity
  8
DV1_Standard
  6
HIDDEN2
 62
     7
100
AcDbCircle
 10
283.4569682611
 20
155.9320564743
 30
0.0
 40
2.5
100
AcDbArc
 50
98.109614456
 51
106.6645713738
  0
ARC
  5
83
330
71
100
AcDbEntity
  8
DV1_Standard
  6
HIDDEN2
 62
     7
100
AcDbCircle
 10
283.4569682611
 20
155.9320564743
 30
0.0
 40
2.5
100
AcDbArc
 50
73.3354286262
 51
81.890385544
  0
ARC
  5
84
330
71
100
AcDbEntity
  8
DV1_Standard
  6
HIDDEN2
 62
     7
100
AcDbCircle
 10
283.4569682611
 20
155.9320564743
 30
0.0
 40
2.5
100
AcDbArc
 50
8.109614456
 51
16.6645713738
  0
LINE
  5
85
330
71
100
AcDbEntity
  8
DV1_Standard
  6
HIDDEN2
 62
     7
100
AcDbLine
 10
153.4819682611
 20
173.9570564743
 30
0.0
 11
153.4819682611
 21
155.9570564743
 31
0.0
  0
LINE
  5
86
330
71
100
AcDbEntity
  8
DV1_Standard
  6
HIDDEN2
 62
     7
100
AcDbLine
 10
151.4819682611
 20
167.9570564743
 30
0.0
 11
151.4819682611
 21
155.9570564743
 31
0.0
  0
LINE
  5
87
330
71
100
AcDbEntity
  8
DV1_Standard
  6
HIDDEN2
 62
     7
100
AcDbLine
 10
171.4819682611
 20
153.9570564743
 30
0.0
 11
171.4819682611
 21
151.9570564743
 31
0.0
  0
LINE
  5
88
330
71
100
AcDbEntity
  8
DV1_Standard
  6
HIDDEN2
 62
     7
100
AcDbLine
 10
155.4819682611
 20
153.9570564743
 30
0.0
 11
171.4819682611
 21
153.9570564743
 31
0.0
  0
LINE
  5
89
330
71
100
AcDbEntity
  8
DV1_Standard
  6
HIDDEN2
 62
     7
100
AcDbLine
 10
155.4819682611
 20
151.9570564743
 30
0.0
 11
171.4819682611
 21
151.9570564743
 31
0.0
  0
ARC
  5
8A
330
71
100
AcDbEntity
  8
DV1_Standard
  6
HIDDEN2
 62
     7
100
AcDbCircle
 10
155.4819682611
 20
155.9570564743
 30
0.0
 40
3.999999999999996
100
AcDbArc
 50
180.0
 51
270.0
  0
ARC
  5
8B
330
71
100
AcDbEntity
  8
DV1_Standard
  6
HIDDEN2
 62
     7
100
AcDbCircle
 10
155.4819682611
 20
155.9570564743
 30
0.0
 40
2.000000000000002
100
AcDbArc
 50
180.0
 51
270.0
  0
LINE
  5
8C
330
71
100
AcDbEntity
  8
DV1_Standard
  6
HIDDEN2
 62
     7
100
AcDbLine
 10
153.4819682611
 20
170.9570564743
 30
0.0
 11
151.4819682611
 21
170.9570564743
 31
0.0
  0
LINE
  5
8D
330
71
100
AcDbEntity
  8
DV1_Standard
  6
HIDDEN2
 62
     7
100
AcDbLine
 10
166.3312588711
 20
151.9570564743
 30
0.0
 11
166.3312588711
 21
153.9570564743
 31
0.0
  0
LINE
  5
8E
330
71
100
AcDbEntity
  8
DV1_Standard
  6
Continuous
 62
     7
100
AcDbLine
 10
151.4819682611
 20
173.9570564743
 30
0.0
 11
253.4819682611
 21
173.9570564743
 31
0.0
  0
LINE
  5
8F
330
71
100
AcDbEntity
  8
DV1_Standard
  6
HIDDEN2
 62
     7
100
AcDbLine
 10
255.4819682611
 20
167.9570564743
 30
0.0
 11
255.4819682611
 21
165.9570564743
 31
0.0
  0
LINE
  5
90
330
71
100
AcDbEntity
  8
DV1_Standard
  6
Continuous
 62
     7
100
AcDbLine
 10
255.4819682611
 20
165.9570564743
 30
0.0
 11
255.4819682611
 21
153.9570564743
 31
0.0
  0
LINE
  5
91
330
71
100
AcDbEntity
  8
DV1_Standard
  6
Continuous
 62
     7
100
AcDbLine
 10
253.4819682611
 20
167.9570564743
 30
0.0
 11
253.4819682611
 21
173.9570564743
 31
0.0
  0
LINE
  5
92
330
71
100
AcDbEntity
  8
DV1_Standard
  6
Continuous
 62
     7
100
AcDbLine
 10
151.4819682611
 20
173.9570564743
 30
0.0
 11
151.4819682611
 21
167.9570564743
 31
0.0
  0
LINE
  5
93
330
71
100
AcDbEntity
  8
DV1_Standard
  6
Continuous
 62
     7
100
AcDbLine
 10
201.7660725302
 20
128.3842194622
 30
0.0
 11
172.7660725302
 21
133.6596414449
 31
0.0
  0
LINE
  5
94
330
71
100
AcDbEntity
  8
DV1_Standard
  6
Continuous
 62
     7
100
AcDbLine
 10
169.4819682611
 20
137.5950567092
 30
0.0
 11
169.4819682611
 21
147.9570564743
 31
0.0
  0
LINE
  5
95
330
71
100
AcDbEntity
  8
DV1_Standard
  6
Continuous
 62
     7
100
AcDbLine
 10
149.4819682611
 20
153.9570564743
 30
0.0
 11
149.4819682611
 21
165.9570564743
 31
0.0
  0
LINE
  5
96
330
71
100
AcDbEntity
  8
DV1_Standard
  6
HIDDEN2
 62
     7
100
AcDbLine
 10
149.4819682611
 20
165.9570564743
 30
0.0
 11
149.4819682611
 21
167.9570564743
 31
0.0
  0
LINE
  5
97
330
71
100
AcDbEntity
  8
DV1_Standard
  6
Continuous
 62
     7
100
AcDbLine
 10
232.197863992
 20
133.6596414449
 30
0.0
 11
203.197863992
 21
128.3842194622
 31
0.0
  0
LINE
  5
98
330
71
100
AcDbEntity
  8
DV1_Standard
  6
Continuous
 62
     7
100
AcDbLine
 10
251.4819682611
 20
149.9570564743
 30
0.0
 11
237.4819682611
 21
149.9570564743
 31
0.0
  0
ARC
  5
99
330
71
100
AcDbEntity
  8
DV1_Standard
  6
Continuous
 62
     7
100
AcDbCircle
 10
153.4819682611
 20
153.9570564743
 30
0.0
 40
3.999999999999996
100
AcDbArc
 50
180.0
 51
270.0
  0
ARC
  5
9A
330
71
100
AcDbEntity
  8
DV1_Standard
  6
Continuous
 62
     7
100
AcDbCircle
 10
251.4819682611
 20
153.9570564743
 30
0.0
 40
4.0
100
AcDbArc
 50
270.0
 51
0.0
  0
ARC
  5
9B
330
71
100
AcDbEntity
  8
DV1_Standard
  6
Continuous
 62
     7
100
AcDbCircle
 10
202.4819682611
 20
132.3196347265
 30
0.0
 40
3.999999999999999
100
AcDbArc
 50
259.69
 51
280.31
  0
ARC
  5
9C
330
71
100
AcDbEntity
  8
DV1_Standard
  6
Continuous
 62
     7
100
AcDbCircle
 10
231.4819682611
 20
137.5950567092
 30
0.0
 40
4.000000000000001
100
AcDbArc
 50
280.31
 51
360.0
  0
ARC
  5
9D
330
71
100
AcDbEntity
  8
DV1_Standard
  6
Continuous
 62
     7
100
AcDbCircle
 10
173.4819682611
 20
137.5950567092
 30
0.0
 40
4.0
100
AcDbArc
 50
180.0
 51
259.69
  0
LINE
  5
9E
330
71
100
AcDbEntity
  8
DV1_Standard
  6
Continuous
 62
     7
100
AcDbLine
 10
167.4819682611
 20
149.9570564743
 30
0.0
 11
153.4819682611
 21
149.9570564743
 31
0.0
  0
LINE
  5
9F
330
71
100
AcDbEntity
  8
DV1_Standard
  6
Continuous
 62
     7
100
AcDbLine
 10
235.4819682611
 20
147.9570564743
 30
0.0
 11
235.4819682611
 21
137.5950567092
 31
0.0
  0
ARC
  5
A0
330
71
100
AcDbEntity
  8
DV1_Standard
  6
Continuous
 62
     7
100
AcDbCircle
 10
167.4819682611
 20
147.9570564743
 30
0.0
 40
1.999999999999998
100
AcDbArc
 50
0.0
 51
90.0
  0
ARC
  5
A1
330
71
100
AcDbEntity
  8
DV1_Standard
  6
Continuous
 62
     7
100
AcDbCircle
 10
237.4819682611
 20
147.9570564743
 30
0.0
 40
2.000000000000002
100
AcDbArc
 50
90.0
 51
180.0
  0
LINE
  5
A2
330
71
100
AcDbEntity
  8
DV1_Standard
  6
Continuous
 62
     7
100
AcDbLine
 10
106.4819682611
 20
167.9570564743
 30
0.0
 11
298.4819682611
 21
167.9570564743
 31
0.0
  0
LINE
  5
A3
330
71
100
AcDbEntity
  8
DV1_Standard
  6
Continuous
 62
     7
100
AcDbLine
 10
106.4819682611
 20
165.9570564743
 30
0.0
 11
298.4819682611
 21
165.9570564743
 31
0.0
  0
LINE
  5
A4
330
71
100
AcDbEntity
  8
DV1_Standard
  6
Continuous
 62
     7
100
AcDbLine
 10
298.4819682611
 20
167.9570564743
 30
0.0
 11
298.4819682611
 21
165.9570564743
 31
0.0
  0
LINE
  5
A5
330
71
100
AcDbEntity
  8
DV1_Standard
  6
Continuous
 62
     7
100
AcDbLine
 10
106.4819682611
 20
167.9570564743
 30
0.0
 11
106.4819682611
 21
165.9570564743
 31
0.0
  0
LINE
  5
A6
330
71
100
AcDbEntity
  8
DV1_Standard
  6
HIDDEN2
 62
     7
100
AcDbLine
 10
255.6819682611
 20
167.9570564743
 30
0.0
 11
255.6819682611
 21
165.9570564743
 31
0.0
  0
LINE
  5
A7
330
71
100
AcDbEntity
  8
DV1_Standard
  6
HIDDEN2
 62
     7
100
AcDbLine
 10
149.2819682611
 20
167.9570564743
 30
0.0
 11
149.2819682611
 21
165.9570564743
 31
0.0
  0
LINE
  5
A8
330
71
100
AcDbEntity
  8
DV1_Standard
  6
HIDDEN2
 62
     7
100
AcDbLine
 10
232.1979568675
 20
133.6906181893
 30
0.0
 11
203.1979568675
 21
128.4144891571
 31
0.0
  0
LINE
  5
A9
330
71
100
AcDbEntity
  8
DV1_Standard
  6
HIDDEN2
 62
     7
100
AcDbLine
 10
201.7659796548
 20
128.4144891571
 30
0.0
 11
172.7659796548
 21
133.6906181893
 31
0.0
  0
ARC
  5
AA
330
71
100
AcDbEntity
  8
DV1_Standard
  6
Continuous
 62
     7
100
AcDbCircle
 10
147.4819682611
 20
163.9570564743
 30
0.0
 40
2.000000000000002
100
AcDbArc
 50
0.0
 51
90.0
  0
ARC
  5
AB
330
71
100
AcDbEntity
  8
DV1_Standard
  6
HIDDEN2
 62
     7
100
AcDbCircle
 10
173.4819682611
 20
137.6260165574
 30
0.0
 40
4.0
100
AcDbArc
 50
180.0
 51
259.6886478222
  0
ARC
  5
AC
330
71
100
AcDbEntity
  8
DV1_Standard
  6
HIDDEN2
 62
     7
100
AcDbCircle
 10
202.4819682611
 20
132.3498875252
 30
0.0
 40
4.0
100
AcDbArc
 50
259.6886478222
 51
280.3113521778
  0
ARC
  5
AD
330
71
100
AcDbEntity
  8
DV1_Standard
  6
HIDDEN2
 62
     7
100
AcDbCircle
 10
231.4819682611
 20
137.6260165574
 30
0.0
 40
4.0
100
AcDbArc
 50
280.3113521778
 51
0.0
  0
ARC
  5
AE
330
71
100
AcDbEntity
  8
DV1_Standard
  6
Continuous
 62
     7
100
AcDbCircle
 10
257.4819682611
 20
163.9570564743
 30
0.0
 40
2.000000000000002
100
AcDbArc
 50
90.0
 51
180.0
  0
ARC
  5
AF
330
71
100
AcDbEntity
  8
DV1_Standard
  6
HIDDEN2
 62
     7
100
AcDbCircle
 10
257.4819682611
 20
163.9570564743
 30
0.0
 40
3.999999999999996
100
AcDbArc
 50
90.0
 51
180.0
  0
LINE
  5
B0
330
71
100
AcDbEntity
  8
DV1_Standard
  6
HIDDEN2
 62
     7
100
AcDbLine
 10
253.4819682611
 20
163.9570564743
 30
0.0
 11
253.4819682611
 21
153.9570564743
 31
0.0
  0
ARC
  5
B1
330
71
100
AcDbEntity
  8
DV1_Standard
  6
HIDDEN2
 62
     7
100
AcDbCircle
 10
251.4819682611
 20
153.9570564743
 30
0.0
 40
2.000000000000002
100
AcDbArc
 50
270.0
 51
0.0
  0
LINE
  5
B2
330
71
100
AcDbEntity
  8
DV1_Standard
  6
HIDDEN2
 62
     7
100
AcDbLine
 10
251.4819682611
 20
151.9570564743
 30
0.0
 11
237.4819682611
 21
151.9570564743
 31
0.0
  0
ARC
  5
B3
330
71
100
AcDbEntity
  8
DV1_Standard
  6
HIDDEN2
 62
     7
100
AcDbCircle
 10
237.4819682611
 20
147.9570564743
 30
0.0
 40
4.0
100
AcDbArc
 50
90.0
 51
180.0
  0
LINE
  5
B4
330
71
100
AcDbEntity
  8
DV1_Standard
  6
HIDDEN2
 62
     7
100
AcDbLine
 10
233.4819682611
 20
147.9570564743
 30
0.0
 11
233.4819682611
 21
137.6260165574
 31
0.0
  0
ARC
  5
B5
330
71
100
AcDbEntity
  8
DV1_Standard
  6
HIDDEN2
 62
     7
100
AcDbCircle
 10
231.4819682611
 20
137.6260165574
 30
0.0
 40
1.999999999999998
100
AcDbArc
 50
280.3113521778
 51
0.0
  0
LINE
  5
B6
330
71
100
AcDbEntity
  8
DV1_Standard
  6
HIDDEN2
 62
     7
100
AcDbLine
 10
231.8399625643
 20
135.6583173734
 30
0.0
 11
202.8399625643
 21
130.3821883411
 31
0.0
  0
ARC
  5
B7
330
71
100
AcDbEntity
  8
DV1_Standard
  6
HIDDEN2
 62
     7
100
AcDbCircle
 10
202.4819682611
 20
132.3498875252
 30
0.0
 40
2.000000000000014
100
AcDbArc
 50
259.6886478222
 51
280.3113521778
  0
LINE
  5
B8
330
71
100
AcDbEntity
  8
DV1_Standard
  6
HIDDEN2
 62
     7
100
AcDbLine
 10
202.123973958
 20
130.3821883411
 30
0.0
 11
173.123973958
 21
135.6583173734
 31
0.0
  0
ARC
  5
B9
330
71
100
AcDbEntity
  8
DV1_Standard
  6
HIDDEN2
 62
     7
100
AcDbCircle
 10
173.4819682611
 20
137.6260165574
 30
0.0
 40
2.000000000000003
100
AcDbArc
 50
180.0
 51
259.6886478222
  0
LINE
  5
BA
330
71
100
AcDbEntity
  8
DV1_Standard
  6
HIDDEN2
 62
     7
100
AcDbLine
 10
171.4819682611
 20
137.6260165574
 30
0.0
 11
171.4819682611
 21
147.9570564743
 31
0.0
  0
ARC
  5
BB
330
71
100
AcDbEntity
  8
DV1_Standard
  6
HIDDEN2
 62
     7
100
AcDbCircle
 10
167.4819682611
 20
147.9570564743
 30
0.0
 40
4.0
100
AcDbArc
 50
0.0
 51
90.0
  0
LINE
  5
BC
330
71
100
AcDbEntity
  8
DV1_Standard
  6
HIDDEN2
 62
     7
100
AcDbLine
 10
167.4819682611
 20
151.9570564743
 30
0.0
 11
153.4819682611
 21
151.9570564743
 31
0.0
  0
ARC
  5
BD
330
71
100
AcDbEntity
  8
DV1_Standard
  6
HIDDEN2
 62
     7
100
AcDbCircle
 10
153.4819682611
 20
153.9570564743
 30
0.0
 40
2.000000000000002
100
AcDbArc
 50
180.0
 51
270.0
  0
LINE
  5
BE
330
71
100
AcDbEntity
  8
DV1_Standard
  6
HIDDEN2
 62
     7
100
AcDbLine
 10
151.4819682611
 20
153.9570564743
 30
0.0
 11
151.4819682611
 21
163.9570564743
 31
0.0
  0
ARC
  5
BF
330
71
100
AcDbEntity
  8
DV1_Standard
  6
HIDDEN2
 62
     7
100
AcDbCircle
 10
147.4819682611
 20
163.9570564743
 30
0.0
 40
4.000000000000004
100
AcDbArc
 50
0.0
 51
90.0
  0
CIRCLE
  5
C0
330
71
100
AcDbEntity
  8
DV1_Standard
  6
Continuous
 62
     7
100
AcDbCircle
 10
121.4569682611
 20
125.9320564743
 30
0.0
 40
6.5
  0
ARC
  5
C1
330
71
100
AcDbEntity
  8
DV1_Standard
  6
HIDDEN2
 62
     7
100
AcDbCircle
 10
121.4569682611
 20
125.9320564743
 30
0.0
 40
2.500000000000001
100
AcDbArc
 50
261.890385544
 51
278.109614456
  0
ARC
  5
C2
330
71
100
AcDbEntity
  8
DV1_Standard
  6
HIDDEN2
 62
     7
100
AcDbCircle
 10
121.4569682611
 20
125.9320564743
 30
0.0
 40
2.500000000000004
100
AcDbArc
 50
171.890385544
 51
188.109614456
  0
ARC
  5
C3
330
71
100
AcDbEntity
  8
DV1_Standard
  6
HIDDEN2
 62
     7
100
AcDbCircle
 10
121.4569682611
 20
125.9320564743
 30
0.0
 40
2.5
100
AcDbArc
 50
81.890385544
 51
98.109614456
  0
ARC
  5
C4
330
71
100
AcDbEntity
  8
DV1_Standard
  6
HIDDEN2
 62
     7
100
AcDbCircle
 10
121.4569682611
 20
125.9320564743
 30
0.0
 40
2.500000000000004
100
AcDbArc
 50
351.890385544
 51
8.109614456
  0
ARC
  5
C5
330
71
100
AcDbEntity
  8
DV1_Standard
  6
HIDDEN2
 62
     7
100
AcDbCircle
 10
121.4569682611
 20
125.9320564743
 30
0.0
 40
2.499999999999994
100
AcDbArc
 50
196.6645713738
 51
253.3354286262
  0
LINE
  5
C6
330
71
100
AcDbEntity
  8
DV1_Standard
  6
HIDDEN2
 62
     7
100
AcDbLine
 10
118.9819682611
 20
123.5370564743
 30
0.0
 11
118.9819682611
 21
124.9570564743
 31
0.0
  0
LINE
  5
C7
330
71
100
AcDbEntity
  8
DV1_Standard
  6
HIDDEN2
 62
     7
100
AcDbLine
 10
123.8519682611
 20
123.4570564743
 30
0.0
 11
119.0619682611
 21
123.4570564743
 31
0.0
  0
ARC
  5
C8
330
71
100
AcDbEntity
  8
DV1_Standard
  6
HIDDEN2
 62
     7
100
AcDbCircle
 10
121.4569682611
 20
125.9320564743
 30
0.0
 40
2.499999999999999
100
AcDbArc
 50
286.6645713738
 51
343.3354286262
  0
ARC
  5
C9
330
71
100
AcDbEntity
  8
DV1_Standard
  6
HIDDEN2
 62
     7
100
AcDbCircle
 10
121.4569682611
 20
125.9320564743
 30
0.0
 40
2.499999999999999
100
AcDbArc
 50
106.6645713738
 51
163.3354286262
  0
LINE
  5
CA
330
71
100
AcDbEntity
  8
DV1_Standard
  6
HIDDEN2
 62
     7
100
AcDbLine
 10
123.9319682611
 20
128.3270564743
 30
0.0
 11
123.9319682611
 21
123.5370564743
 31
0.0
  0
LINE
  5
CB
330
71
100
AcDbEntity
  8
DV1_Standard
  6
HIDDEN2
 62
     7
100
AcDbLine
 10
119.0619682611
 20
128.4070564743
 30
0.0
 11
123.8519682611
 21
128.4070564743
 31
0.0
  0
ARC
  5
CC
330
71
100
AcDbEntity
  8
DV1_Standard
  6
HIDDEN2
 62
     7
100
AcDbCircle
 10
121.4569682611
 20
125.9320564743
 30
0.0
 40
2.499999999999994
100
AcDbArc
 50
16.6645713738
 51
73.3354286262
  0
ARC
  5
CD
330
71
100
AcDbEntity
  8
DV1_Standard
  6
HIDDEN2
 62
     7
100
AcDbCircle
 10
121.4569682611
 20
125.9320564743
 30
0.0
 40
2.499999999993114
100
AcDbArc
 50
188.109614456
 51
196.6645713738
  0
ARC
  5
CE
330
71
100
AcDbEntity
  8
DV1_Standard
  6
HIDDEN2
 62
     7
100
AcDbCircle
 10
121.4569682611
 20
125.9320564743
 30
0.0
 40
2.499999999999028
100
AcDbArc
 50
253.3354286262
 51
261.890385544
  0
ARC
  5
CF
330
71
100
AcDbEntity
  8
DV1_Standard
  6
HIDDEN2
 62
     7
100
AcDbCircle
 10
121.4569682611
 20
125.9320564743
 30
0.0
 40
2.499999999993175
100
AcDbArc
 50
278.109614456
 51
286.6645713738
  0
ARC
  5
D0
330
71
100
AcDbEntity
  8
DV1_Standard
  6
HIDDEN2
 62
     7
100
AcDbCircle
 10
121.4569682611
 20
125.9320564743
 30
0.0
 40
2.499999999998817
100
AcDbArc
 50
163.3354286262
 51
171.890385544
  0
ARC
  5
D1
330
71
100
AcDbEntity
  8
DV1_Standard
  6
HIDDEN2
 62
     7
100
AcDbCircle
 10
121.4569682611
 20
125.9320564743
 30
0.0
 40
2.499999999998812
100
AcDbArc
 50
343.3354286262
 51
351.890385544
  0
ARC
  5
D2
330
71
100
AcDbEntity
  8
DV1_Standard
  6
HIDDEN2
 62
     7
100
AcDbCircle
 10
121.4569682611
 20
125.9320564743
 30
0.0
 40
2.499999999992616
100
AcDbArc
 50
98.109614456
 51
106.6645713738
  0
ARC
  5
D3
330
71
100
AcDbEntity
  8
DV1_Standard
  6
HIDDEN2
 62
     7
100
AcDbCircle
 10
121.4569682611
 20
125.9320564743
 30
0.0
 40
2.499999999992988
100
AcDbArc
 50
8.109614456
 51
16.6645713738
  0
ARC
  5
D4
330
71
100
AcDbEntity
  8
DV1_Standard
  6
HIDDEN2
 62
     7
100
AcDbCircle
 10
121.4569682611
 20
125.9320564743
 30
0.0
 40
2.499999999998883
100
AcDbArc
 50
73.3354286262
 51
81.890385544
  0
ARC
  5
D5
330
71
100
AcDbEntity
  8
DV1_Standard
  6
HIDDEN2
 62
     7
100
AcDbCircle
 10
123.8519682611
 20
128.3270564743
 30
0.0
 40
0.0800000000000106
100
AcDbArc
 50
0.0
 51
90.0
  0
ARC
  5
D6
330
71
100
AcDbEntity
  8
DV1_Standard
  6
HIDDEN2
 62
     7
100
AcDbCircle
 10
119.0619682611
 20
128.3270564743
 30
0.0
 40
0.0800000000000002
100
AcDbArc
 50
90.0
 51
180.0
  0
ARC
  5
D7
330
71
100
AcDbEntity
  8
DV1_Standard
  6
HIDDEN2
 62
     7
100
AcDbCircle
 10
123.8519682611
 20
123.5370564743
 30
0.0
 40
0.0800000000000002
100
AcDbArc
 50
270.0
 51
0.0
  0
ARC
  5
D8
330
71
100
AcDbEntity
  8
DV1_Standard
  6
HIDDEN2
 62
     7
100
AcDbCircle
 10
119.0619682611
 20
123.5370564743
 30
0.0
 40
0.0800000000000002
100
AcDbArc
 50
180.0
 51
270.0
  0
ARC
  5
D9
330
71
100
AcDbEntity
  8
DV1_Standard
  6
HIDDEN2
 62
     7
100
AcDbCircle
 10
121.4569682611
 20
125.9320564743
 30
0.0
 40
2.009499999999999
100
AcDbArc
 50
255.0
 51
195.0
  0
LINE
  5
DA
330
71
100
AcDbEntity
  8
DV1_Standard
  6
Continuous
 62
     7
100
AcDbLine
 10
111.4819682611
 20
86.9570564743
 30
0.0
 11
111.4819682611
 21
82.9570564743
 31
0.0
  0
LINE
  5
DB
330
71
100
AcDbEntity
  8
DV1_Standard
  6
Continuous
 62
     7
100
AcDbLine
 10
131.4819682611
 20
86.9570564743
 30
0.0
 11
131.4819682611
 21
82.9570564743
 31
0.0
  0
LINE
  5
DC
330
71
100
AcDbEntity
  8
DV1_Standard
  6
Continuous
 62
     7
100
AcDbLine
 10
111.4819682611
 20
82.9570564743
 30
0.0
 11
131.4819682611
 21
82.9570564743
 31
0.0
  0
LINE
  5
DD
330
71
100
AcDbEntity
  8
DV1_Standard
  6
HIDDEN2
 62
     7
100
AcDbLine
 10
111.4819682611
 20
84.9570564743
 30
0.0
 11
131.4819682611
 21
84.9570564743
 31
0.0
  0
LINE
  5
DE
330
71
100
AcDbEntity
  8
DV1_Standard
  6
Continuous
 62
     7
100
AcDbLine
 10
111.4819682611
 20
82.9570564743
 30
0.0
 11
108.4819682611
 21
82.9570564743
 31
0.0
  0
LINE
  5
DF
330
71
100
AcDbEntity
  8
DV1_Standard
  6
Continuous
 62
     7
100
AcDbLine
 10
111.4819682611
 20
84.9570564743
 30
0.0
 11
108.4819682611
 21
84.9570564743
 31
0.0
  0
LINE
  5
E0
330
71
100
AcDbEntity
  8
DV1_Standard
  6
Continuous
 62
     7
100
AcDbLine
 10
136.4819682611
 20
84.9570564743
 30
0.0
 11
136.4819682611
 21
82.9570564743
 31
0.0
  0
LINE
  5
E1
330
71
100
AcDbEntity
  8
DV1_Standard
  6
Continuous
 62
     7
100
AcDbLine
 10
134.4819682611
 20
82.9570564743
 30
0.0
 11
131.4819682611
 21
82.9570564743
 31
0.0
  0
LINE
  5
E2
330
71
100
AcDbEntity
  8
DV1_Standard
  6
Continuous
 62
     7
100
AcDbLine
 10
108.4819682611
 20
82.9570564743
 30
0.0
 11
106.4819682611
 21
82.9570564743
 31
0.0
  0
LINE
  5
E3
330
71
100
AcDbEntity
  8
DV1_Standard
  6
Continuous
 62
     7
100
AcDbLine
 10
136.4819682611
 20
82.9570564743
 30
0.0
 11
134.4819682611
 21
82.9570564743
 31
0.0
  0
LINE
  5
E4
330
71
100
AcDbEntity
  8
DV1_Standard
  6
Continuous
 62
     7
100
AcDbLine
 10
134.4819682611
 20
84.9570564743
 30
0.0
 11
131.4819682611
 21
84.9570564743
 31
0.0
  0
LINE
  5
E5
330
71
100
AcDbEntity
  8
DV1_Standard
  6
Continuous
 62
     7
100
AcDbLine
 10
106.4819682611
 20
84.9570564743
 30
0.0
 11
108.4819682611
 21
84.9570564743
 31
0.0
  0
LINE
  5
E6
330
71
100
AcDbEntity
  8
DV1_Standard
  6
Continuous
 62
     7
100
AcDbLine
 10
134.4819682611
 20
84.9570564743
 30
0.0
 11
136.4819682611
 21
84.9570564743
 31
0.0
  0
LINE
  5
E7
330
71
100
AcDbEntity
  8
DV1_Standard
  6
Continuous
 62
     7
100
AcDbLine
 10
106.4819682611
 20
82.9570564743
 30
0.0
 11
106.4819682611
 21
84.9570564743
 31
0.0
  0
LINE
  5
E8
330
71
100
AcDbEntity
  8
DV1_Standard
  6
HIDDEN2
 62
     7
100
AcDbLine
 10
118.9819682611
 20
123.5370564743
 30
0.0
 11
118.9819682611
 21
123.4570564743
 31
0.0
  0
LINE
  5
E9
330
71
100
AcDbEntity
  8
DV1_Standard
  6
HIDDEN2
 62
     7
100
AcDbLine
 10
118.9819682611
 20
123.4570564743
 30
0.0
 11
119.0619682611
 21
123.4570564743
 31
0.0
  0
LINE
  5
EA
330
71
100
AcDbEntity
  8
DV1_Standard
  6
HIDDEN2
 62
     7
100
AcDbLine
 10
123.8519682611
 20
123.4570564743
 30
0.0
 11
123.9819682611
 21
123.4570564743
 31
0.0
  0
LINE
  5
EB
330
71
100
AcDbEntity
  8
DV1_Standard
  6
HIDDEN2
 62
     7
100
AcDbLine
 10
123.9819682611
 20
123.4570564743
 30
0.0
 11
123.9819682611
 21
124.9570564743
 31
0.0
  0
LINE
  5
EC
330
71
100
AcDbEntity
  8
DV1_Standard
  6
HIDDEN2
 62
     7
100
AcDbLine
 10
123.9819682611
 20
128.4570564743
 30
0.0
 11
118.9819682611
 21
128.4570564743
 31
0.0
  0
LINE
  5
ED
330
71
100
AcDbEntity
  8
DV1_Standard
  6
HIDDEN2
 62
     7
100
AcDbLine
 10
116.4819682611
 20
84.9570564743
 30
0.0
 11
116.4819682611
 21
82.9570564743
 31
0.0
  0
LINE
  5
EE
330
71
100
AcDbEntity
  8
DV1_Standard
  6
HIDDEN2
 62
     7
100
AcDbLine
 10
126.4819682611
 20
84.9570564743
 30
0.0
 11
126.4819682611
 21
82.9570564743
 31
0.0
  0
LINE
  5
EF
330
71
100
AcDbEntity
  8
DV1_Standard
  6
HIDDEN2
 62
     7
100
AcDbLine
 10
131.4819682611
 20
131.9570564743
 30
0.0
 11
131.4819682611
 21
120.9570564743
 31
0.0
  0
LINE
  5
F0
330
71
100
AcDbEntity
  8
DV1_Standard
  6
Continuous
 62
     7
100
AcDbLine
 10
131.4819682611
 20
120.9570564743
 30
0.0
 11
131.4819682611
 21
86.9570564743
 31
0.0
  0
LINE
  5
F1
330
71
100
AcDbEntity
  8
DV1_Standard
  6
HIDDEN2
 62
     7
100
AcDbLine
 10
111.4819682611
 20
131.9570564743
 30
0.0
 11
111.4819682611
 21
120.9570564743
 31
0.0
  0
LINE
  5
F2
330
71
100
AcDbEntity
  8
DV1_Standard
  6
Continuous
 62
     7
100
AcDbLine
 10
111.4819682611
 20
120.9570564743
 30
0.0
 11
111.4819682611
 21
86.9570564743
 31
0.0
  0
LINE
  5
F3
330
71
100
AcDbEntity
  8
DV1_Standard
  6
HIDDEN2
 62
     7
100
AcDbLine
 10
111.4819682611
 20
131.9570564743
 30
0.0
 11
118.9819682611
 21
131.9570564743
 31
0.0
  0
LINE
  5
F4
330
71
100
AcDbEntity
  8
DV1_Standard
  6
Continuous
 62
     7
100
AcDbLine
 10
118.9819682611
 20
131.9570564743
 30
0.0
 11
119.0178341935
 21
131.9570564743
 31
0.0
  0
LINE
  5
F5
330
71
100
AcDbEntity
  8
DV1_Standard
  6
HIDDEN2
 62
     7
100
AcDbLine
 10
119.0178341935
 20
131.9570564743
 30
0.0
 11
123.8961023288
 21
131.9570564743
 31
0.0
  0
LINE
  5
F6
330
71
100
AcDbEntity
  8
DV1_Standard
  6
Continuous
 62
     7
100
AcDbLine
 10
123.8961023288
 20
131.9570564743
 30
0.0
 11
123.9819682611
 21
131.9570564743
 31
0.0
  0
LINE
  5
F7
330
71
100
AcDbEntity
  8
DV1_Standard
  6
HIDDEN2
 62
     7
100
AcDbLine
 10
123.9819682611
 20
131.9570564743
 30
0.0
 11
131.4819682611
 21
131.9570564743
 31
0.0
  0
CIRCLE
  5
F8
330
71
100
AcDbEntity
  8
DV1_Standard
  6
Continuous
 62
     7
100
AcDbCircle
 10
283.4569682611
 20
155.9320564743
 30
0.0
 40
6.5
  0
ARC
  5
F9
330
71
100
AcDbEntity
  8
DV1_Standard
  6
HIDDEN2
 62
     7
100
AcDbCircle
 10
283.4569682611
 20
155.9320564743
 30
0.0
 40
2.500000000000002
100
AcDbArc
 50
261.890385544
 51
278.109614456
  0
ARC
  5
FA
330
71
100
AcDbEntity
  8
DV1_Standard
  6
HIDDEN2
 62
     7
100
AcDbCircle
 10
283.4569682611
 20
155.9320564743
 30
0.0
 40
2.500000000000005
100
AcDbArc
 50
171.890385544
 51
188.109614456
  0
ARC
  5
FB
330
71
100
AcDbEntity
  8
DV1_Standard
  6
HIDDEN2
 62
     7
100
AcDbCircle
 10
283.4569682611
 20
155.9320564743
 30
0.0
 40
2.500000000000002
100
AcDbArc
 50
81.890385544
 51
98.109614456
  0
ARC
  5
FC
330
71
100
AcDbEntity
  8
DV1_Standard
  6
HIDDEN2
 62
     7
100
AcDbCircle
 10
283.4569682611
 20
155.9320564743
 30
0.0
 40
2.500000000000005
100
AcDbArc
 50
351.890385544
 51
8.109614456
  0
ARC
  5
FD
330
71
100
AcDbEntity
  8
DV1_Standard
  6
HIDDEN2
 62
     7
100
AcDbCircle
 10
283.4569682611
 20
155.9320564743
 30
0.0
 40
2.499999999999994
100
AcDbArc
 50
196.6645713738
 51
253.3354286262
  0
LINE
  5
FE
330
71
100
AcDbEntity
  8
DV1_Standard
  6
HIDDEN2
 62
     7
100
AcDbLine
 10
280.9819682611
 20
156.9570564743
 30
0.0
 11
280.9819682611
 21
158.3270564743
 31
0.0
  0
LINE
  5
FF
330
71
100
AcDbEntity
  8
DV1_Standard
  6
HIDDEN2
 62
     7
100
AcDbLine
 10
285.8519682611
 20
153.4570564743
 30
0.0
 11
281.0619682611
 21
153.4570564743
 31
0.0
  0
ARC
  5
100
330
71
100
AcDbEntity
  8
DV1_Standard
  6
HIDDEN2
 62
     7
100
AcDbCircle
 10
283.4569682611
 20
155.9320564743
 30
0.0
 40
2.5
100
AcDbArc
 50
286.6645713738
 51
343.3354286262
  0
ARC
  5
101
330
71
100
AcDbEntity
  8
DV1_Standard
  6
HIDDEN2
 62
     7
100
AcDbCircle
 10
283.4569682611
 20
155.9320564743
 30
0.0
 40
2.499999999999996
100
AcDbArc
 50
106.6645713738
 51
163.3354286262
  0
LINE
  5
102
330
71
100
AcDbEntity
  8
DV1_Standard
  6
HIDDEN2
 62
     7
100
AcDbLine
 10
285.9319682611
 20
158.3270564743
 30
0.0
 11
285.9319682611
 21
153.5370564743
 31
0.0
  0
LINE
  5
103
330
71
100
AcDbEntity
  8
DV1_Standard
  6
HIDDEN2
 62
     7
100
AcDbLine
 10
281.0619682611
 20
158.4070564743
 30
0.0
 11
285.8519682611
 21
158.4070564743
 31
0.0
  0
ARC
  5
104
330
71
100
AcDbEntity
  8
DV1_Standard
  6
HIDDEN2
 62
     7
100
AcDbCircle
 10
283.4569682611
 20
155.9320564743
 30
0.0
 40
2.499999999999994
100
AcDbArc
 50
16.6645713738
 51
73.3354286262
  0
ARC
  5
105
330
71
100
AcDbEntity
  8
DV1_Standard
  6
HIDDEN2
 62
     7
100
AcDbCircle
 10
283.4569682611
 20
155.9320564743
 30
0.0
 40
2.49999999999306
100
AcDbArc
 50
188.109614456
 51
196.6645713738
  0
ARC
  5
106
330
71
100
AcDbEntity
  8
DV1_Standard
  6
HIDDEN2
 62
     7
100
AcDbCircle
 10
283.4569682611
 20
155.9320564743
 30
0.0
 40
2.499999999999498
100
AcDbArc
 50
253.3354286262
 51
261.890385544
  0
ARC
  5
107
330
71
100
AcDbEntity
  8
DV1_Standard
  6
HIDDEN2
 62
     7
100
AcDbCircle
 10
283.4569682611
 20
155.9320564743
 30
0.0
 40
2.499999999993125
100
AcDbArc
 50
278.109614456
 51
286.6645713738
  0
ARC
  5
108
330
71
100
AcDbEntity
  8
DV1_Standard
  6
HIDDEN2
 62
     7
100
AcDbCircle
 10
283.4569682611
 20
155.9320564743
 30
0.0
 40
2.49999999999888
100
AcDbArc
 50
163.3354286262
 51
171.890385544
  0
ARC
  5
109
330
71
100
AcDbEntity
  8
DV1_Standard
  6
HIDDEN2
 62
     7
100
AcDbCircle
 10
283.4569682611
 20
155.9320564743
 30
0.0
 40
2.499999999998901
100
AcDbArc
 50
343.3354286262
 51
351.890385544
  0
ARC
  5
10A
330
71
100
AcDbEntity
  8
DV1_Standard
  6
HIDDEN2
 62
     7
100
AcDbCircle
 10
283.4569682611
 20
155.9320564743
 30
0.0
 40
2.499999999992713
100
AcDbArc
 50
98.109614456
 51
106.6645713738
  0
ARC
  5
10B
330
71
100
AcDbEntity
  8
DV1_Standard
  6
HIDDEN2
 62
     7
100
AcDbCircle
 10
283.4569682611
 20
155.9320564743
 30
0.0
 40
2.499999999993097
100
AcDbArc
 50
8.109614456
 51
16.6645713738
  0
ARC
  5
10C
330
71
100
AcDbEntity
  8
DV1_Standard
  6
HIDDEN2
 62
     7
100
AcDbCircle
 10
283.4569682611
 20
155.9320564743
 30
0.0
 40
2.49999999999928
100
AcDbArc
 50
73.3354286262
 51
81.890385544
  0
ARC
  5
10D
330
71
100
AcDbEntity
  8
DV1_Standard
  6
HIDDEN2
 62
     7
100
AcDbCircle
 10
285.8519682611
 20
158.3270564743
 30
0.0
 40
0.0800000000000106
100
AcDbArc
 50
0.0
 51
90.0
  0
ARC
  5
10E
330
71
100
AcDbEntity
  8
DV1_Standard
  6
HIDDEN2
 62
     7
100
AcDbCircle
 10
281.0619682611
 20
158.3270564743
 30
0.0
 40
0.0800000000000002
100
AcDbArc
 50
90.0
 51
180.0
  0
ARC
  5
10F
330
71
100
AcDbEntity
  8
DV1_Standard
  6
HIDDEN2
 62
     7
100
AcDbCircle
 10
285.8519682611
 20
153.5370564743
 30
0.0
 40
0.0800000000000002
100
AcDbArc
 50
270.0
 51
0.0
  0
ARC
  5
110
330
71
100
AcDbEntity
  8
DV1_Standard
  6
HIDDEN2
 62
     7
100
AcDbCircle
 10
281.0619682611
 20
153.5370564743
 30
0.0
 40
0.0800000000000002
100
AcDbArc
 50
180.0
 51
270.0
  0
ARC
  5
111
330
71
100
AcDbEntity
  8
DV1_Standard
  6
HIDDEN2
 62
     7
100
AcDbCircle
 10
283.4569682611
 20
155.9320564743
 30
0.0
 40
2.009499999999995
100
AcDbArc
 50
255.0
 51
195.0
  0
LINE
  5
112
330
71
100
AcDbEntity
  8
DV1_Standard
  6
Continuous
 62
     7
100
AcDbLine
 10
273.4819682611
 20
116.9570564743
 30
0.0
 11
273.4819682611
 21
112.9570564743
 31
0.0
  0
LINE
  5
113
330
71
100
AcDbEntity
  8
DV1_Standard
  6
Continuous
 62
     7
100
AcDbLine
 10
293.4819682611
 20
116.9570564743
 30
0.0
 11
293.4819682611
 21
112.9570564743
 31
0.0
  0
LINE
  5
114
330
71
100
AcDbEntity
  8
DV1_Standard
  6
Continuous
 62
     7
100
AcDbLine
 10
273.4819682611
 20
112.9570564743
 30
0.0
 11
293.4819682611
 21
112.9570564743
 31
0.0
  0
LINE
  5
115
330
71
100
AcDbEntity
  8
DV1_Standard
  6
HIDDEN2
 62
     7
100
AcDbLine
 10
273.4819682611
 20
114.9570564743
 30
0.0
 11
293.4819682611
 21
114.9570564743
 31
0.0
  0
LINE
  5
116
330
71
100
AcDbEntity
  8
DV1_Standard
  6
Continuous
 62
     7
100
AcDbLine
 10
273.4819682611
 20
112.9570564743
 30
0.0
 11
270.4819682611
 21
112.9570564743
 31
0.0
  0
LINE
  5
117
330
71
100
AcDbEntity
  8
DV1_Standard
  6
Continuous
 62
     7
100
AcDbLine
 10
273.4819682611
 20
114.9570564743
 30
0.0
 11
270.4819682611
 21
114.9570564743
 31
0.0
  0
LINE
  5
118
330
71
100
AcDbEntity
  8
DV1_Standard
  6
Continuous
 62
     7
100
AcDbLine
 10
298.4819682611
 20
114.9570564743
 30
0.0
 11
298.4819682611
 21
112.9570564743
 31
0.0
  0
LINE
  5
119
330
71
100
AcDbEntity
  8
DV1_Standard
  6
Continuous
 62
     7
100
AcDbLine
 10
296.4819682611
 20
112.9570564743
 30
0.0
 11
293.4819682611
 21
112.9570564743
 31
0.0
  0
LINE
  5
11A
330
71
100
AcDbEntity
  8
DV1_Standard
  6
Continuous
 62
     7
100
AcDbLine
 10
270.4819682611
 20
112.9570564743
 30
0.0
 11
268.4819682611
 21
112.9570564743
 31
0.0
  0
LINE
  5
11B
330
71
100
AcDbEntity
  8
DV1_Standard
  6
Continuous
 62
     7
100
AcDbLine
 10
298.4819682611
 20
112.9570564743
 30
0.0
 11
296.4819682611
 21
112.9570564743
 31
0.0
  0
LINE
  5
11C
330
71
100
AcDbEntity
  8
DV1_Standard
  6
Continuous
 62
     7
100
AcDbLine
 10
296.4819682611
 20
114.9570564743
 30
0.0
 11
293.4819682611
 21
114.9570564743
 31
0.0
  0
LINE
  5
11D
330
71
100
AcDbEntity
  8
DV1_Standard
  6
Continuous
 62
     7
100
AcDbLine
 10
268.4819682611
 20
114.9570564743
 30
0.0
 11
270.4819682611
 21
114.9570564743
 31
0.0
  0
LINE
  5
11E
330
71
100
AcDbEntity
  8
DV1_Standard
  6
Continuous
 62
     7
100
AcDbLine
 10
296.4819682611
 20
114.9570564743
 30
0.0
 11
298.4819682611
 21
114.9570564743
 31
0.0
  0
LINE
  5
11F
330
71
100
AcDbEntity
  8
DV1_Standard
  6
Continuous
 62
     7
100
AcDbLine
 10
268.4819682611
 20
112.9570564743
 30
0.0
 11
268.4819682611
 21
114.9570564743
 31
0.0
  0
LINE
  5
120
330
71
100
AcDbEntity
  8
DV1_Standard
  6
HIDDEN2
 62
     7
100
AcDbLine
 10
280.9819682611
 20
158.4570564743
 30
0.0
 11
280.9819682611
 21
158.3270564743
 31
0.0
  0
LINE
  5
121
330
71
100
AcDbEntity
  8
DV1_Standard
  6
HIDDEN2
 62
     7
100
AcDbLine
 10
280.9819682611
 20
153.4570564743
 30
0.0
 11
281.0619682611
 21
153.4570564743
 31
0.0
  0
LINE
  5
122
330
71
100
AcDbEntity
  8
DV1_Standard
  6
HIDDEN2
 62
     7
100
AcDbLine
 10
285.8519682611
 20
153.4570564743
 30
0.0
 11
285.9819682611
 21
153.4570564743
 31
0.0
  0
LINE
  5
123
330
71
100
AcDbEntity
  8
DV1_Standard
  6
HIDDEN2
 62
     7
100
AcDbLine
 10
285.9819682611
 20
156.9570564743
 30
0.0
 11
285.9819682611
 21
158.4570564743
 31
0.0
  0
LINE
  5
124
330
71
100
AcDbEntity
  8
DV1_Standard
  6
HIDDEN2
 62
     7
100
AcDbLine
 10
285.9819682611
 20
158.4570564743
 30
0.0
 11
280.9819682611
 21
158.4570564743
 31
0.0
  0
LINE
  5
125
330
71
100
AcDbEntity
  8
DV1_Standard
  6
HIDDEN2
 62
     7
100
AcDbLine
 10
278.4819682611
 20
114.9570564743
 30
0.0
 11
278.4819682611
 21
112.9570564743
 31
0.0
  0
LINE
  5
126
330
71
100
AcDbEntity
  8
DV1_Standard
  6
HIDDEN2
 62
     7
100
AcDbLine
 10
288.4819682611
 20
114.9570564743
 30
0.0
 11
288.4819682611
 21
112.9570564743
 31
0.0
  0
LINE
  5
127
330
71
100
AcDbEntity
  8
DV1_Standard
  6
HIDDEN2
 62
     7
100
AcDbLine
 10
293.4819682611
 20
161.9570564743
 30
0.0
 11
293.4819682611
 21
120.9570564743
 31
0.0
  0
LINE
  5
128
330
71
100
AcDbEntity
  8
DV1_Standard
  6
Continuous
 62
     7
100
AcDbLine
 10
293.4819682611
 20
120.9570564743
 30
0.0
 11
293.4819682611
 21
116.9570564743
 31
0.0
  0
LINE
  5
129
330
71
100
AcDbEntity
  8
DV1_Standard
  6
HIDDEN2
 62
     7
100
AcDbLine
 10
273.4819682611
 20
161.9570564743
 30
0.0
 11
273.4819682611
 21
120.9570564743
 31
0.0
  0
LINE
  5
12A
330
71
100
AcDbEntity
  8
DV1_Standard
  6
Continuous
 62
     7
100
AcDbLine
 10
273.4819682611
 20
120.9570564743
 30
0.0
 11
273.4819682611
 21
116.9570564743
 31
0.0
  0
LINE
  5
12B
330
71
100
AcDbEntity
  8
DV1_Standard
  6
HIDDEN2
 62
     7
100
AcDbLine
 10
273.4819682611
 20
161.9570564743
 30
0.0
 11
293.4819682611
 21
161.9570564743
 31
0.0
  0
LINE
  5
12C
330
71
100
AcDbEntity
  8
DV1_Standard
  6
Continuous
 62
     7
100
AcDbLine
 10
298.4819682611
 20
119.9570564743
 30
0.0
 11
298.4819682611
 21
161.9570564743
 31
0.0
  0
LINE
  5
12D
330
71
100
AcDbEntity
  8
DV1_Standard
  6
Continuous
 62
     7
100
AcDbLine
 10
255.9819682611
 20
163.9570564743
 30
0.0
 11
255.9819682611
 21
150.9570564743
 31
0.0
  0
LINE
  5
12E
330
71
100
AcDbEntity
  8
DV1_Standard
  6
Continuous
 62
     7
100
AcDbLine
 10
253.9819682611
 20
148.9570564743
 30
0.0
 11
237.9819682611
 21
148.9570564743
 31
0.0
  0
LINE
  5
12F
330
71
100
AcDbEntity
  8
DV1_Standard
  6
Continuous
 62
     7
100
AcDbLine
 10
235.9819682611
 20
146.9570564743
 30
0.0
 11
235.9819682611
 21
135.1560565918
 31
0.0
  0
LINE
  5
130
330
71
100
AcDbEntity
  8
DV1_Standard
  6
Continuous
 62
     7
100
AcDbLine
 10
234.3399161266
 20
133.1883489596
 30
0.0
 11
202.8399161266
 21
127.4581492198
 31
0.0
  0
LINE
  5
131
330
71
100
AcDbEntity
  8
DV1_Standard
  6
Continuous
 62
     7
100
AcDbLine
 10
202.1240203957
 20
127.4581492198
 30
0.0
 11
170.6240203957
 21
133.1883489596
 31
0.0
  0
LINE
  5
132
330
71
100
AcDbEntity
  8
DV1_Standard
  6
Continuous
 62
     7
100
AcDbLine
 10
168.9819682611
 20
135.1560565918
 30
0.0
 11
168.9819682611
 21
146.9570564743
 31
0.0
  0
LINE
  5
133
330
71
100
AcDbEntity
  8
DV1_Standard
  6
Continuous
 62
     7
100
AcDbLine
 10
166.9819682611
 20
148.9570564743
 30
0.0
 11
150.9819682611
 21
148.9570564743
 31
0.0
  0
LINE
  5
134
330
71
100
AcDbEntity
  8
DV1_Standard
  6
Continuous
 62
     7
100
AcDbLine
 10
148.9819682611
 20
150.9570564743
 30
0.0
 11
148.9819682611
 21
163.9570564743
 31
0.0
  0
ARC
  5
135
330
71
100
AcDbEntity
  8
DV1_Standard
  6
Continuous
 62
     7
100
AcDbCircle
 10
146.9819682611
 20
163.9570564743
 30
0.0
 40
2.000000000000002
100
AcDbArc
 50
0.0
 51
90.0
  0
ARC
  5
136
330
71
100
AcDbEntity
  8
DV1_Standard
  6
Continuous
 62
     7
100
AcDbCircle
 10
166.9819682611
 20
146.9570564743
 30
0.0
 40
2.000000000000002
100
AcDbArc
 50
0.0
 51
90.0
  0
ARC
  5
137
330
71
100
AcDbEntity
  8
DV1_Standard
  6
Continuous
 62
     7
100
AcDbCircle
 10
237.9819682611
 20
146.9570564743
 30
0.0
 40
2.000000000000002
100
AcDbArc
 50
90.0
 51
180.0
  0
ARC
  5
138
330
71
100
AcDbEntity
  8
DV1_Standard
  6
Continuous
 62
     7
100
AcDbCircle
 10
257.9819682611
 20
163.9570564743
 30
0.0
 40
2.000000000000002
100
AcDbArc
 50
90.0
 51
180.0
  0
ARC
  5
139
330
71
100
AcDbEntity
  8
DV1_Standard
  6
Continuous
 62
     7
100
AcDbCircle
 10
253.9819682611
 20
150.9570564743
 30
0.0
 40
2.000000000000002
100
AcDbArc
 50
270.0
 51
0.0
  0
ARC
  5
13A
330
71
100
AcDbEntity
  8
DV1_Standard
  6
Continuous
 62
     7
100
AcDbCircle
 10
233.9819682611
 20
135.1560565918
 30
0.0
 40
2.000000000000002
100
AcDbArc
 50
280.31
 51
0.0
  0
ARC
  5
13B
330
71
100
AcDbEntity
  8
DV1_Standard
  6
Continuous
 62
     7
100
AcDbCircle
 10
202.4819682611
 20
129.425856852
 30
0.0
 40
2.0
100
AcDbArc
 50
259.69
 51
280.31
  0
ARC
  5
13C
330
71
100
AcDbEntity
  8
DV1_Standard
  6
Continuous
 62
     7
100
AcDbCircle
 10
170.9819682611
 20
135.1560565918
 30
0.0
 40
2.0
100
AcDbArc
 50
180.0
 51
259.69
  0
ARC
  5
13D
330
71
100
AcDbEntity
  8
DV1_Standard
  6
Continuous
 62
     7
100
AcDbCircle
 10
150.9819682611
 20
150.9570564743
 30
0.0
 40
1.999999999999998
100
AcDbArc
 50
180.0
 51
270.0
  0
LINE
  5
13E
330
71
100
AcDbEntity
  8
DV1_Standard
  6
Continuous
 62
     7
100
AcDbLine
 10
106.4819682611
 20
115.9570564743
 30
0.0
 11
106.4819682611
 21
119.9570564743
 31
0.0
  0
LINE
  5
13F
330
71
100
AcDbEntity
  8
DV1_Standard
  6
Continuous
 62
     7
100
AcDbLine
 10
298.4819682611
 20
119.9570564743
 30
0.0
 11
298.4819682611
 21
115.9570564743
 31
0.0
  0
LINE
  5
140
330
71
100
AcDbEntity
  8
DV1_Standard
  6
Continuous
 62
     7
100
AcDbLine
 10
298.4819682611
 20
115.9570564743
 30
0.0
 11
293.9819682611
 21
115.9570564743
 31
0.0
  0
LINE
  5
141
330
71
100
AcDbEntity
  8
DV1_Standard
  6
HIDDEN2
 62
     7
100
AcDbLine
 10
298.4819682611
 20
117.9570564743
 30
0.0
 11
293.9819682611
 21
117.9570564743
 31
0.0
  0
LINE
  5
142
330
71
100
AcDbEntity
  8
DV1_Standard
  6
HIDDEN2
 62
     7
100
AcDbLine
 10
268.4819682611
 20
115.9570564743
 30
0.0
 11
268.4819682611
 21
117.9570564743
 31
0.0
  0
LINE
  5
143
330
71
100
AcDbEntity
  8
DV1_Standard
  6
HIDDEN2
 62
     7
100
AcDbLine
 10
277.1311153
 20
115.9570564743
 30
0.0
 11
277.1311153
 21
117.9570564743
 31
0.0
  0
LINE
  5
144
330
71
100
AcDbEntity
  8
DV1_Standard
  6
HIDDEN2
 62
     7
100
AcDbLine
 10
280.3065417806
 20
115.9570564743
 30
0.0
 11
280.3065417806
 21
117.9570564743
 31
0.0
  0
LINE
  5
145
330
71
100
AcDbEntity
  8
DV1_Standard
  6
HIDDEN2
 62
     7
100
AcDbLine
 10
286.6573947417
 20
115.9570564743
 30
0.0
 11
286.6573947417
 21
117.9570564743
 31
0.0
  0
LINE
  5
146
330
71
100
AcDbEntity
  8
DV1_Standard
  6
HIDDEN2
 62
     7
100
AcDbLine
 10
289.8328212222
 20
115.9570564743
 30
0.0
 11
289.8328212222
 21
117.9570564743
 31
0.0
  0
LINE
  5
147
330
71
100
AcDbEntity
  8
DV1_Standard
  6
HIDDEN2
 62
     7
100
AcDbLine
 10
272.9819682611
 20
117.9570564743
 30
0.0
 11
131.9819682611
 21
117.9570564743
 31
0.0
  0
LINE
  5
148
330
71
100
AcDbEntity
  8
DV1_Standard
  6
Continuous
 62
     7
100
AcDbLine
 10
272.9819682611
 20
115.9570564743
 30
0.0
 11
131.9819682611
 21
115.9570564743
 31
0.0
  0
LINE
  5
149
330
71
100
AcDbEntity
  8
DV1_Standard
  6
Continuous
 62
     7
100
AcDbLine
 10
293.9819682611
 20
120.9570564743
 30
0.0
 11
293.9819682611
 21
119.9570564743
 31
0.0
  0
LINE
  5
14A
330
71
100
AcDbEntity
  8
DV1_Standard
  6
Continuous
 62
     7
100
AcDbLine
 10
293.9819682611
 20
119.9570564743
 30
0.0
 11
293.9819682611
 21
115.9570564743
 31
0.0
  0
LINE
  5
14B
330
71
100
AcDbEntity
  8
DV1_Standard
  6
Continuous
 62
     7
100
AcDbLine
 10
293.9819682611
 20
115.9570564743
 30
0.0
 11
293.4819682611
 21
115.9570564743
 31
0.0
  0
LINE
  5
14C
330
71
100
AcDbEntity
  8
DV1_Standard
  6
HIDDEN2
 62
     7
100
AcDbLine
 10
293.4819682611
 20
115.9570564743
 30
0.0
 11
273.4819682611
 21
115.9570564743
 31
0.0
  0
LINE
  5
14D
330
71
100
AcDbEntity
  8
DV1_Standard
  6
Continuous
 62
     7
100
AcDbLine
 10
273.4819682611
 20
115.9570564743
 30
0.0
 11
272.9819682611
 21
115.9570564743
 31
0.0
  0
LINE
  5
14E
330
71
100
AcDbEntity
  8
DV1_Standard
  6
Continuous
 62
     7
100
AcDbLine
 10
272.9819682611
 20
115.9570564743
 30
0.0
 11
272.9819682611
 21
119.9570564743
 31
0.0
  0
LINE
  5
14F
330
71
100
AcDbEntity
  8
DV1_Standard
  6
Continuous
 62
     7
100
AcDbLine
 10
272.9819682611
 20
119.9570564743
 30
0.0
 11
272.9819682611
 21
120.9570564743
 31
0.0
  0
LINE
  5
150
330
71
100
AcDbEntity
  8
DV1_Standard
  6
Continuous
 62
     7
100
AcDbLine
 10
293.9819682611
 20
117.9570564743
 30
0.0
 11
293.4819682611
 21
117.9570564743
 31
0.0
  0
LINE
  5
151
330
71
100
AcDbEntity
  8
DV1_Standard
  6
HIDDEN2
 62
     7
100
AcDbLine
 10
293.4819682611
 20
117.9570564743
 30
0.0
 11
273.4819682611
 21
117.9570564743
 31
0.0
  0
LINE
  5
152
330
71
100
AcDbEntity
  8
DV1_Standard
  6
Continuous
 62
     7
100
AcDbLine
 10
273.4819682611
 20
117.9570564743
 30
0.0
 11
272.9819682611
 21
117.9570564743
 31
0.0
  0
LINE
  5
153
330
71
100
AcDbEntity
  8
DV1_Standard
  6
Continuous
 62
     7
100
AcDbLine
 10
293.9819682611
 20
120.9570564743
 30
0.0
 11
272.9819682611
 21
120.9570564743
 31
0.0
  0
ARC
  5
154
330
71
100
AcDbEntity
  8
DV1_Standard
  6
HIDDEN2
 62
     7
100
AcDbCircle
 10
283.4819682611
 20
156.9570564743
 30
0.0
 40
2.499999999999988
100
AcDbArc
 50
0.0
 51
180.0
  0
LINE
  5
155
330
71
100
AcDbEntity
  8
DV1_Standard
  6
HIDDEN2
 62
     7
100
AcDbLine
 10
285.9819682611
 20
156.9570564743
 30
0.0
 11
285.9819682611
 21
149.9425343732
 31
0.0
  0
LINE
  5
156
330
71
100
AcDbEntity
  8
DV1_Standard
  6
Continuous
 62
     7
100
AcDbLine
 10
285.9819682611
 20
149.9425343732
 30
0.0
 11
285.9819682611
 21
124.9570564743
 31
0.0
  0
ARC
  5
157
330
71
100
AcDbEntity
  8
DV1_Standard
  6
Continuous
 62
     7
100
AcDbCircle
 10
283.4819682611
 20
124.9570564743
 30
0.0
 40
2.500000000000016
100
AcDbArc
 50
180.0
 51
0.0
  0
LINE
  5
158
330
71
100
AcDbEntity
  8
DV1_Standard
  6
Continuous
 62
     7
100
AcDbLine
 10
280.9819682611
 20
124.9570564743
 30
0.0
 11
280.9819682611
 21
149.9217008276
 31
0.0
  0
LINE
  5
159
330
71
100
AcDbEntity
  8
DV1_Standard
  6
HIDDEN2
 62
     7
100
AcDbLine
 10
280.9819682611
 20
149.9217008276
 30
0.0
 11
280.9819682611
 21
156.9570564743
 31
0.0
  0
LINE
  5
15A
330
71
100
AcDbEntity
  8
DV1_Standard
  6
Continuous
 62
     7
100
AcDbLine
 10
265.4019682611
 20
160.9570564743
 30
0.0
 11
265.4019682611
 21
165.9570564743
 31
0.0
  0
LINE
  5
15B
330
71
100
AcDbEntity
  8
DV1_Standard
  6
Continuous
 62
     7
100
AcDbLine
 10
268.4819682611
 20
160.9570564743
 30
0.0
 11
265.4019682611
 21
160.9570564743
 31
0.0
  0
LINE
  5
15C
330
71
100
AcDbEntity
  8
DV1_Standard
  6
Continuous
 62
     7
100
AcDbLine
 10
268.4819682611
 20
161.9570564743
 30
0.0
 11
268.4819682611
 21
160.9570564743
 31
0.0
  0
LINE
  5
15D
330
71
100
AcDbEntity
  8
DV1_Standard
  6
Continuous
 62
     7
100
AcDbLine
 10
298.4819682611
 20
161.9570564743
 30
0.0
 11
298.4819682611
 21
165.9570564743
 31
0.0
  0
LINE
  5
15E
330
71
100
AcDbEntity
  8
DV1_Standard
  6
Continuous
 62
     7
100
AcDbLine
 10
268.4819682611
 20
165.9570564743
 30
0.0
 11
268.4819682611
 21
161.9570564743
 31
0.0
  0
LINE
  5
15F
330
71
100
AcDbEntity
  8
DV1_Standard
  6
HIDDEN2
 62
     7
100
AcDbLine
 10
268.4819682611
 20
163.9570564743
 30
0.0
 11
298.4819682611
 21
163.9570564743
 31
0.0
  0
LINE
  5
160
330
71
100
AcDbEntity
  8
DV1_Standard
  6
HIDDEN2
 62
     7
100
AcDbLine
 10
136.4819682611
 20
117.9570564743
 30
0.0
 11
136.4819682611
 21
115.9570564743
 31
0.0
  0
LINE
  5
161
330
71
100
AcDbEntity
  8
DV1_Standard
  6
HIDDEN2
 62
     7
100
AcDbLine
 10
115.1311153
 20
115.9570564743
 30
0.0
 11
115.1311153
 21
117.9570564743
 31
0.0
  0
LINE
  5
162
330
71
100
AcDbEntity
  8
DV1_Standard
  6
HIDDEN2
 62
     7
100
AcDbLine
 10
118.3065417806
 20
115.9570564743
 30
0.0
 11
118.3065417806
 21
117.9570564743
 31
0.0
  0
LINE
  5
163
330
71
100
AcDbEntity
  8
DV1_Standard
  6
HIDDEN2
 62
     7
100
AcDbLine
 10
124.6573947417
 20
115.9570564743
 30
0.0
 11
124.6573947417
 21
117.9570564743
 31
0.0
  0
LINE
  5
164
330
71
100
AcDbEntity
  8
DV1_Standard
  6
HIDDEN2
 62
     7
100
AcDbLine
 10
127.8328212222
 20
115.9570564743
 30
0.0
 11
127.8328212222
 21
117.9570564743
 31
0.0
  0
LINE
  5
165
330
71
100
AcDbEntity
  8
DV1_Standard
  6
HIDDEN2
 62
     7
100
AcDbLine
 10
110.9819682611
 20
117.9570564743
 30
0.0
 11
106.4819682611
 21
117.9570564743
 31
0.0
  0
LINE
  5
166
330
71
100
AcDbEntity
  8
DV1_Standard
  6
Continuous
 62
     7
100
AcDbLine
 10
110.9819682611
 20
115.9570564743
 30
0.0
 11
106.4819682611
 21
115.9570564743
 31
0.0
  0
LINE
  5
167
330
71
100
AcDbEntity
  8
DV1_Standard
  6
Continuous
 62
     7
100
AcDbLine
 10
110.9819682611
 20
115.9570564743
 30
0.0
 11
110.9819682611
 21
119.9570564743
 31
0.0
  0
LINE
  5
168
330
71
100
AcDbEntity
  8
DV1_Standard
  6
Continuous
 62
     7
100
AcDbLine
 10
110.9819682611
 20
119.9570564743
 30
0.0
 11
110.9819682611
 21
120.9570564743
 31
0.0
  0
LINE
  5
169
330
71
100
AcDbEntity
  8
DV1_Standard
  6
Continuous
 62
     7
100
AcDbLine
 10
131.9819682611
 20
120.9570564743
 30
0.0
 11
131.9819682611
 21
119.9570564743
 31
0.0
  0
LINE
  5
16A
330
71
100
AcDbEntity
  8
DV1_Standard
  6
Continuous
 62
     7
100
AcDbLine
 10
131.9819682611
 20
119.9570564743
 30
0.0
 11
131.9819682611
 21
115.9570564743
 31
0.0
  0
LINE
  5
16B
330
71
100
AcDbEntity
  8
DV1_Standard
  6
Continuous
 62
     7
100
AcDbLine
 10
131.9819682611
 20
115.9570564743
 30
0.0
 11
131.4819682611
 21
115.9570564743
 31
0.0
  0
LINE
  5
16C
330
71
100
AcDbEntity
  8
DV1_Standard
  6
HIDDEN2
 62
     7
100
AcDbLine
 10
131.4819682611
 20
115.9570564743
 30
0.0
 11
111.4819682611
 21
115.9570564743
 31
0.0
  0
LINE
  5
16D
330
71
100
AcDbEntity
  8
DV1_Standard
  6
Continuous
 62
     7
100
AcDbLine
 10
111.4819682611
 20
115.9570564743
 30
0.0
 11
110.9819682611
 21
115.9570564743
 31
0.0
  0
LINE
  5
16E
330
71
100
AcDbEntity
  8
DV1_Standard
  6
Continuous
 62
     7
100
AcDbLine
 10
131.9819682611
 20
117.9570564743
 30
0.0
 11
131.4819682611
 21
117.9570564743
 31
0.0
  0
LINE
  5
16F
330
71
100
AcDbEntity
  8
DV1_Standard
  6
HIDDEN2
 62
     7
100
AcDbLine
 10
131.4819682611
 20
117.9570564743
 30
0.0
 11
111.4819682611
 21
117.9570564743
 31
0.0
  0
LINE
  5
170
330
71
100
AcDbEntity
  8
DV1_Standard
  6
Continuous
 62
     7
100
AcDbLine
 10
111.4819682611
 20
117.9570564743
 30
0.0
 11
110.9819682611
 21
117.9570564743
 31
0.0
  0
LINE
  5
171
330
71
100
AcDbEntity
  8
DV1_Standard
  6
Continuous
 62
     7
100
AcDbLine
 10
131.9819682611
 20
120.9570564743
 30
0.0
 11
125.6401936913
 21
120.9570564743
 31
0.0
  0
LINE
  5
172
330
71
100
AcDbEntity
  8
DV1_Standard
  6
HIDDEN2
 62
     7
100
AcDbLine
 10
125.6401936913
 20
120.9570564743
 30
0.0
 11
117.2737428309
 21
120.9570564743
 31
0.0
  0
LINE
  5
173
330
71
100
AcDbEntity
  8
DV1_Standard
  6
Continuous
 62
     7
100
AcDbLine
 10
117.2737428309
 20
120.9570564743
 30
0.0
 11
110.9819682611
 21
120.9570564743
 31
0.0
  0
LINE
  5
174
330
71
100
AcDbEntity
  8
DV1_Standard
  6
HIDDEN2
 62
     7
100
AcDbLine
 10
118.9819682611
 20
124.9570564743
 30
0.0
 11
118.9819682611
 21
131.9424121211
 31
0.0
  0
LINE
  5
175
330
71
100
AcDbEntity
  8
DV1_Standard
  6
Continuous
 62
     7
100
AcDbLine
 10
118.9819682611
 20
131.9424121211
 30
0.0
 11
118.9819682611
 21
156.9570564743
 31
0.0
  0
ARC
  5
176
330
71
100
AcDbEntity
  8
DV1_Standard
  6
Continuous
 62
     7
100
AcDbCircle
 10
121.4819682611
 20
156.9570564743
 30
0.0
 40
2.500000000000002
100
AcDbArc
 50
0.0
 51
180.0
  0
LINE
  5
177
330
71
100
AcDbEntity
  8
DV1_Standard
  6
Continuous
 62
     7
100
AcDbLine
 10
123.9819682611
 20
156.9570564743
 30
0.0
 11
123.9819682611
 21
131.9215785755
 31
0.0
  0
LINE
  5
178
330
71
100
AcDbEntity
  8
DV1_Standard
  6
HIDDEN2
 62
     7
100
AcDbLine
 10
123.9819682611
 20
131.9215785755
 30
0.0
 11
123.9819682611
 21
124.9570564743
 31
0.0
  0
ARC
  5
179
330
71
100
AcDbEntity
  8
DV1_Standard
  6
HIDDEN2
 62
     7
100
AcDbCircle
 10
121.4819682611
 20
124.9570564743
 30
0.0
 40
2.500000000000016
100
AcDbArc
 50
180.0
 51
0.0
  0
LINE
  5
17A
330
71
100
AcDbEntity
  8
DV1_Standard
  6
Continuous
 62
     7
100
AcDbLine
 10
136.4819682611
 20
160.9570564743
 30
0.0
 11
139.5619682611
 21
160.9570564743
 31
0.0
  0
LINE
  5
17B
330
71
100
AcDbEntity
  8
DV1_Standard
  6
Continuous
 62
     7
100
AcDbLine
 10
139.5619682611
 20
160.9570564743
 30
0.0
 11
139.5619682611
 21
165.9570564743
 31
0.0
  0
LINE
  5
17C
330
71
100
AcDbEntity
  8
DV1_Standard
  6
Continuous
 62
     7
100
AcDbLine
 10
136.4819682611
 20
161.9570564743
 30
0.0
 11
136.4819682611
 21
160.9570564743
 31
0.0
  0
LINE
  5
17D
330
71
100
AcDbEntity
  8
DV1_Standard
  6
Continuous
 62
     7
100
AcDbLine
 10
106.4819682611
 20
161.9570564743
 30
0.0
 11
106.4819682611
 21
119.9570564743
 31
0.0
  0
LINE
  5
17E
330
71
100
AcDbEntity
  8
DV1_Standard
  6
Continuous
 62
     7
100
AcDbLine
 10
136.4819682611
 20
165.9570564743
 30
0.0
 11
136.4819682611
 21
161.9570564743
 31
0.0
  0
LINE
  5
17F
330
71
100
AcDbEntity
  8
DV1_Standard
  6
Continuous
 62
     7
100
AcDbLine
 10
106.4819682611
 20
165.9570564743
 30
0.0
 11
106.4819682611
 21
161.9570564743
 31
0.0
  0
LINE
  5
180
330
71
100
AcDbEntity
  8
DV1_Standard
  6
HIDDEN2
 62
     7
100
AcDbLine
 10
106.4819682611
 20
163.9570564743
 30
0.0
 11
136.4819682611
 21
163.9570564743
 31
0.0
  0
LINE
  5
181
330
71
100
AcDbEntity
  8
DV1_Standard
  6
HIDDEN2
 62
     7
100
AcDbLine
 10
253.4819682611
 20
167.9570564743
 30
0.0
 11
253.4819682611
 21
155.9570564743
 31
0.0
  0
LINE
  5
182
330
71
100
AcDbEntity
  8
DV1_Standard
  6
HIDDEN2
 62
     7
100
AcDbLine
 10
251.4819682611
 20
173.9570564743
 30
0.0
 11
251.4819682611
 21
155.9570564743
 31
0.0
  0
LINE
  5
183
330
71
100
AcDbEntity
  8
DV1_Standard
  6
HIDDEN2
 62
     7
100
AcDbLine
 10
249.4819682611
 20
151.9570564743
 30
0.0
 11
233.4819682611
 21
151.9570564743
 31
0.0
  0
LINE
  5
184
330
71
100
AcDbEntity
  8
DV1_Standard
  6
HIDDEN2
 62
     7
100
AcDbLine
 10
249.4819682611
 20
153.9570564743
 30
0.0
 11
233.4819682611
 21
153.9570564743
 31
0.0
  0
LINE
  5
185
330
71
100
AcDbEntity
  8
DV1_Standard
  6
HIDDEN2
 62
     7
100
AcDbLine
 10
233.4819682611
 20
153.9570564743
 30
0.0
 11
233.4819682611
 21
151.9570564743
 31
0.0
  0
ARC
  5
186
330
71
100
AcDbEntity
  8
DV1_Standard
  6
HIDDEN2
 62
     7
100
AcDbCircle
 10
249.4819682611
 20
155.9570564743
 30
0.0
 40
3.999999999999996
100
AcDbArc
 50
270.0
 51
0.0
  0
ARC
  5
187
330
71
100
AcDbEntity
  8
DV1_Standard
  6
HIDDEN2
 62
     7
100
AcDbCircle
 10
249.4819682611
 20
155.9570564743
 30
0.0
 40
1.999999999999998
100
AcDbArc
 50
270.0
 51
0.0
  0
LINE
  5
188
330
71
100
AcDbEntity
  8
DV1_Standard
  6
HIDDEN2
 62
     7
100
AcDbLine
 10
253.4819682611
 20
170.9570564743
 30
0.0
 11
251.4819682611
 21
170.9570564743
 31
0.0
  0
LINE
  5
189
330
71
100
AcDbEntity
  8
DV1_Standard
  6
HIDDEN2
 62
     7
100
AcDbLine
 10
238.6326776512
 20
153.9570564743
 30
0.0
 11
238.6326776512
 21
151.9570564743
 31
0.0
  0
LINE
  5
18A
330
71
100
AcDbEntity
  8
DV1_Standard
  6
HIDDEN2
 62
     7
100
AcDbLine
 10
298.4819682611
 20
159.9570564743
 30
0.0
 11
263.4819682611
 21
159.9570564743
 31
0.0
  0
LINE
  5
18B
330
71
100
AcDbEntity
  8
DV1_Standard
  6
HIDDEN2
 62
     7
100
AcDbLine
 10
261.4819682611
 20
157.9570564743
 30
0.0
 11
261.4819682611
 21
147.9570564743
 31
0.0
  0
LINE
  5
18C
330
71
100
AcDbEntity
  8
DV1_Standard
  6
HIDDEN2
 62
     7
100
AcDbLine
 10
257.4819682611
 20
143.9570564743
 30
0.0
 11
243.4819682611
 21
143.9570564743
 31
0.0
  0
LINE
  5
18D
330
71
100
AcDbEntity
  8
DV1_Standard
  6
HIDDEN2
 62
     7
100
AcDbLine
 10
241.4819682611
 20
141.9570564743
 30
0.0
 11
241.4819682611
 21
132.6260565918
 31
0.0
  0
LINE
  5
18E
330
71
100
AcDbEntity
  8
DV1_Standard
  6
HIDDEN2
 62
     7
100
AcDbLine
 10
238.197863992
 20
128.6906413275
 30
0.0
 11
203.197863992
 21
122.3237527277
 31
0.0
  0
LINE
  5
18F
330
71
100
AcDbEntity
  8
DV1_Standard
  6
HIDDEN2
 62
     7
100
AcDbLine
 10
201.7660725302
 20
122.3237527277
 30
0.0
 11
166.7660725302
 21
128.6906413275
 31
0.0
  0
LINE
  5
190
330
71
100
AcDbEntity
  8
DV1_Standard
  6
HIDDEN2
 62
     7
100
AcDbLine
 10
163.4819682611
 20
132.6260565918
 30
0.0
 11
163.4819682611
 21
141.9570564743
 31
0.0
  0
LINE
  5
191
330
71
100
AcDbEntity
  8
DV1_Standard
  6
HIDDEN2
 62
     7
100
AcDbLine
 10
161.4819682611
 20
143.9570564743
 30
0.0
 11
147.4819682611
 21
143.9570564743
 31
0.0
  0
LINE
  5
192
330
71
100
AcDbEntity
  8
DV1_Standard
  6
HIDDEN2
 62
     7
100
AcDbLine
 10
143.4819682611
 20
147.9570564743
 30
0.0
 11
143.4819682611
 21
157.9570564743
 31
0.0
  0
LINE
  5
193
330
71
100
AcDbEntity
  8
DV1_Standard
  6
HIDDEN2
 62
     7
100
AcDbLine
 10
141.4819682611
 20
159.9570564743
 30
0.0
 11
106.4819682611
 21
159.9570564743
 31
0.0
  0
ARC
  5
194
330
71
100
AcDbEntity
  8
DV1_Standard
  6
HIDDEN2
 62
     7
100
AcDbCircle
 10
141.4819682611
 20
157.9570564743
 30
0.0
 40
2.000000000000002
100
AcDbArc
 50
0.0
 51
90.0
  0
ARC
  5
195
330
71
100
AcDbEntity
  8
DV1_Standard
  6
HIDDEN2
 62
     7
100
AcDbCircle
 10
147.4819682611
 20
147.9570564743
 30
0.0
 40
4.0
100
AcDbArc
 50
180.0
 51
270.0
  0
ARC
  5
196
330
71
100
AcDbEntity
  8
DV1_Standard
  6
HIDDEN2
 62
     7
100
AcDbCircle
 10
161.4819682611
 20
141.9570564743
 30
0.0
 40
2.000000000000002
100
AcDbArc
 50
0.0
 51
90.0
  0
ARC
  5
197
330
71
100
AcDbEntity
  8
DV1_Standard
  6
HIDDEN2
 62
     7
100
AcDbCircle
 10
167.4819682611
 20
132.6260565918
 30
0.0
 40
4.0
100
AcDbArc
 50
180.0
 51
259.69
  0
ARC
  5
198
330
71
100
AcDbEntity
  8
DV1_Standard
  6
HIDDEN2
 62
     7
100
AcDbCircle
 10
202.4819682611
 20
126.259167992
 30
0.0
 40
3.999999999999999
100
AcDbArc
 50
259.69
 51
280.31
  0
ARC
  5
199
330
71
100
AcDbEntity
  8
DV1_Standard
  6
HIDDEN2
 62
     7
100
AcDbCircle
 10
237.4819682611
 20
132.6260565918
 30
0.0
 40
4.000000000000004
100
AcDbArc
 50
280.31
 51
0.0
  0
ARC
  5
19A
330
71
100
AcDbEntity
  8
DV1_Standard
  6
HIDDEN2
 62
     7
100
AcDbCircle
 10
243.4819682611
 20
141.9570564743
 30
0.0
 40
2.0
100
AcDbArc
 50
90.0
 51
180.0
  0
ARC
  5
19B
330
71
100
AcDbEntity
  8
DV1_Standard
  6
HIDDEN2
 62
     7
100
AcDbCircle
 10
257.4819682611
 20
147.9570564743
 30
0.0
 40
4.000000000000004
100
AcDbArc
 50
270.0
 51
0.0
  0
ARC
  5
19C
330
71
100
AcDbEntity
  8
DV1_Standard
  6
HIDDEN2
 62
     7
100
AcDbCircle
 10
263.4819682611
 20
157.9570564743
 30
0.0
 40
1.999999999999998
100
AcDbArc
 50
90.0
 51
180.0
  0
LINE
  5
19D
330
71
100
AcDbEntity
  8
DV1_Standard
  6
HIDDEN2
 62
     7
100
AcDbLine
 10
298.4819682611
 20
161.9570564743
 30
0.0
 11
293.4819682611
 21
161.9570564743
 31
0.0
  0
LINE
  5
19E
330
71
100
AcDbEntity
  8
DV1_Standard
  6
HIDDEN2
 62
     7
100
AcDbLine
 10
273.4819682611
 20
161.9570564743
 30
0.0
 11
268.4819682611
 21
161.9570564743
 31
0.0
  0
LINE
  5
19F
330
71
100
AcDbEntity
  8
DV1_Standard
  6
Continuous
 62
     7
100
AcDbLine
 10
268.4819682611
 20
161.9570564743
 30
0.0
 11
265.4019682611
 21
161.9570564743
 31
0.0
  0
LINE
  5
1A0
330
71
100
AcDbEntity
  8
DV1_Standard
  6
HIDDEN2
 62
     7
100
AcDbLine
 10
265.4019682611
 20
161.9570564743
 30
0.0
 11
263.4819682611
 21
161.9570564743
 31
0.0
  0
ARC
  5
1A1
330
71
100
AcDbEntity
  8
DV1_Standard
  6
HIDDEN2
 62
     7
100
AcDbCircle
 10
263.4819682611
 20
157.9570564743
 30
0.0
 40
3.999999999999996
100
AcDbArc
 50
90.0
 51
180.0
  0
LINE
  5
1A2
330
71
100
AcDbEntity
  8
DV1_Standard
  6
HIDDEN2
 62
     7
100
AcDbLine
 10
259.4819682611
 20
157.9570564743
 30
0.0
 11
259.4819682611
 21
147.9570564743
 31
0.0
  0
ARC
  5
1A3
330
71
100
AcDbEntity
  8
DV1_Standard
  6
HIDDEN2
 62
     7
100
AcDbCircle
 10
257.4819682611
 20
147.9570564743
 30
0.0
 40
2.000000000000002
100
AcDbArc
 50
270.0
 51
0.0
  0
LINE
  5
1A4
330
71
100
AcDbEntity
  8
DV1_Standard
  6
HIDDEN2
 62
     7
100
AcDbLine
 10
257.4819682611
 20
145.9570564743
 30
0.0
 11
243.4819682611
 21
145.9570564743
 31
0.0
  0
ARC
  5
1A5
330
71
100
AcDbEntity
  8
DV1_Standard
  6
HIDDEN2
 62
     7
100
AcDbCircle
 10
243.4819682611
 20
141.9570564743
 30
0.0
 40
3.999999999999998
100
AcDbArc
 50
90.0
 51
180.0
  0
LINE
  5
1A6
330
71
100
AcDbEntity
  8
DV1_Standard
  6
HIDDEN2
 62
     7
100
AcDbLine
 10
239.4819682611
 20
141.9570564743
 30
0.0
 11
239.4819682611
 21
132.6260565918
 31
0.0
  0
ARC
  5
1A7
330
71
100
AcDbEntity
  8
DV1_Standard
  6
HIDDEN2
 62
     7
100
AcDbCircle
 10
237.4819682611
 20
132.6260565918
 30
0.0
 40
2.000000000000002
100
AcDbArc
 50
280.31
 51
0.0
  0
LINE
  5
1A8
330
71
100
AcDbEntity
  8
DV1_Standard
  6
HIDDEN2
 62
     7
100
AcDbLine
 10
237.8399161266
 20
130.6583489596
 30
0.0
 11
202.8399161266
 21
124.2914603598
 31
0.0
  0
ARC
  5
1A9
330
71
100
AcDbEntity
  8
DV1_Standard
  6
HIDDEN2
 62
     7
100
AcDbCircle
 10
202.4819682611
 20
126.259167992
 30
0.0
 40
2.000000000000019
100
AcDbArc
 50
259.69
 51
280.31
  0
LINE
  5
1AA
330
71
100
AcDbEntity
  8
DV1_Standard
  6
HIDDEN2
 62
     7
100
AcDbLine
 10
202.1240203957
 20
124.2914603598
 30
0.0
 11
167.1240203957
 21
130.6583489596
 31
0.0
  0
ARC
  5
1AB
330
71
100
AcDbEntity
  8
DV1_Standard
  6
HIDDEN2
 62
     7
100
AcDbCircle
 10
167.4819682611
 20
132.6260565918
 30
0.0
 40
2.0
100
AcDbArc
 50
180.0
 51
259.69
  0
LINE
  5
1AC
330
71
100
AcDbEntity
  8
DV1_Standard
  6
HIDDEN2
 62
     7
100
AcDbLine
 10
165.4819682611
 20
132.6260565918
 30
0.0
 11
165.4819682611
 21
141.9570564743
 31
0.0
  0
ARC
  5
1AD
330
71
100
AcDbEntity
  8
DV1_Standard
  6
HIDDEN2
 62
     7
100
AcDbCircle
 10
161.4819682611
 20
141.9570564743
 30
0.0
 40
4.000000000000004
100
AcDbArc
 50
0.0
 51
90.0
  0
LINE
  5
1AE
330
71
100
AcDbEntity
  8
DV1_Standard
  6
HIDDEN2
 62
     7
100
AcDbLine
 10
161.4819682611
 20
145.9570564743
 30
0.0
 11
147.4819682611
 21
145.9570564743
 31
0.0
  0
ARC
  5
1AF
330
71
100
AcDbEntity
  8
DV1_Standard
  6
HIDDEN2
 62
     7
100
AcDbCircle
 10
147.4819682611
 20
147.9570564743
 30
0.0
 40
2.000000000000002
100
AcDbArc
 50
180.0
 51
270.0
  0
LINE
  5
1B0
330
71
100
AcDbEntity
  8
DV1_Standard
  6
HIDDEN2
 62
     7
100
AcDbLine
 10
145.4819682611
 20
147.9570564743
 30
0.0
 11
145.4819682611
 21
157.9570564743
 31
0.0
  0
ARC
  5
1B1
330
71
100
AcDbEntity
  8
DV1_Standard
  6
HIDDEN2
 62
     7
100
AcDbCircle
 10
141.4819682611
 20
157.9570564743
 30
0.0
 40
4.000000000000004
100
AcDbArc
 50
0.0
 51
90.0
  0
LINE
  5
1B2
330
71
100
AcDbEntity
  8
DV1_Standard
  6
HIDDEN2
 62
     7
100
AcDbLine
 10
141.4819682611
 20
161.9570564743
 30
0.0
 11
139.5619682611
 21
161.9570564743
 31
0.0
  0
LINE
  5
1B3
330
71
100
AcDbEntity
  8
DV1_Standard
  6
Continuous
 62
     7
100
AcDbLine
 10
139.5619682611
 20
161.9570564743
 30
0.0
 11
136.4819682611
 21
161.9570564743
 31
0.0
  0
LINE
  5
1B4
330
71
100
AcDbEntity
  8
DV1_Standard
  6
HIDDEN2
 62
     7
100
AcDbLine
 10
136.4819682611
 20
161.9570564743
 30
0.0
 11
106.4819682611
 21
161.9570564743
 31
0.0
  0
LINE
  5
1B5
330
71
100
AcDbEntity
  8
DV1_Standard
  6
HIDDEN2
 62
     7
100
AcDbLine
 10
191.5365392861
 20
126.2174407249
 30
0.0
 11
191.1785914206
 21
124.2497330927
 31
0.0
  0
LINE
  5
1B6
330
71
100
AcDbEntity
  8
DV1_Standard
  6
HIDDEN2
 62
     7
100
AcDbLine
 10
174.8110244128
 20
129.2599975812
 30
0.0
 11
174.4530765473
 21
127.2922899491
 31
0.0
  0
LINE
  5
1B7
330
71
100
AcDbEntity
  8
DV1_Standard
  6
HIDDEN2
 62
     7
100
AcDbLine
 10
213.4273972362
 20
126.2174407249
 30
0.0
 11
213.7853451017
 21
124.2497330927
 31
0.0
  0
LINE
  5
1B8
330
71
100
AcDbEntity
  8
DV1_Standard
  6
HIDDEN2
 62
     7
100
AcDbLine
 10
230.1529121095
 20
129.2599975812
 30
0.0
 11
230.5108599749
 21
127.2922899491
 31
0.0
  0
LINE
  5
1B9
330
71
100
AcDbEntity
  8
DV1_Standard
  6
HIDDEN2
 62
     7
100
AcDbLine
 10
272.9819682611
 20
161.9570564743
 30
0.0
 11
272.9819682611
 21
159.9570564743
 31
0.0
  0
LINE
  5
1BA
330
71
100
AcDbEntity
  8
DV1_Standard
  6
HIDDEN2
 62
     7
100
AcDbLine
 10
282.9819682611
 20
161.9570564743
 30
0.0
 11
282.9819682611
 21
159.9570564743
 31
0.0
  0
LINE
  5
1BB
330
71
100
AcDbEntity
  8
DV1_Standard
  6
HIDDEN2
 62
     7
100
AcDbLine
 10
121.9819682611
 20
161.9570564743
 30
0.0
 11
121.9819682611
 21
159.9570564743
 31
0.0
  0
LINE
  5
1BC
330
71
100
AcDbEntity
  8
DV1_Standard
  6
HIDDEN2
 62
     7
100
AcDbLine
 10
131.9819682611
 20
161.9570564743
 30
0.0
 11
131.9819682611
 21
159.9570564743
 31
0.0
  0
LINE
  5
1BD
330
71
100
AcDbEntity
  8
DV1_Standard
  6
HIDDEN2
 62
     7
100
AcDbLine
 10
282.9819682611
 20
159.9570564743
 30
0.0
 11
282.9819682611
 21
161.9570564743
 31
0.0
  0
LINE
  5
1BE
330
71
100
AcDbEntity
  8
DV1_Standard
  6
HIDDEN2
 62
     7
100
AcDbLine
 10
272.9819682611
 20
161.9570564743
 30
0.0
 11
272.9819682611
 21
159.9570564743
 31
0.0
  0
LINE
  5
1BF
330
71
100
AcDbEntity
  8
DV1_Standard
  6
HIDDEN2
 62
     7
100
AcDbLine
 10
131.9819682611
 20
159.9570564743
 30
0.0
 11
131.9819682611
 21
161.9570564743
 31
0.0
  0
LINE
  5
1C0
330
71
100
AcDbEntity
  8
DV1_Standard
  6
HIDDEN2
 62
     7
100
AcDbLine
 10
121.9819682611
 20
161.9570564743
 30
0.0
 11
121.9819682611
 21
159.9570564743
 31
0.0
  0
LINE
  5
1C1
330
71
100
AcDbEntity
  8
DV1_Standard
  6
HIDDEN2
 62
     7
100
AcDbLine
 10
191.1785914206
 20
124.2497330927
 30
0.0
 11
191.5365392861
 21
126.2174407249
 31
0.0
  0
LINE
  5
1C2
330
71
100
AcDbEntity
  8
DV1_Standard
  6
HIDDEN2
 62
     7
100
AcDbLine
 10
174.8110244128
 20
129.2599975812
 30
0.0
 11
174.4530765473
 21
127.2922899491
 31
0.0
  0
LINE
  5
1C3
330
71
100
AcDbEntity
  8
DV1_Standard
  6
HIDDEN2
 62
     7
100
AcDbLine
 10
213.4273972362
 20
126.2174407249
 30
0.0
 11
213.7853451017
 21
124.2497330927
 31
0.0
  0
LINE
  5
1C4
330
71
100
AcDbEntity
  8
DV1_Standard
  6
HIDDEN2
 62
     7
100
AcDbLine
 10
230.5108599749
 20
127.2922899491
 30
0.0
 11
230.1529121095
 21
129.2599975812
 31
0.0
  0
LINE
  5
1C5
330
71
100
AcDbEntity
  8
DV1_Standard
  6
Continuous
 62
     7
100
AcDbLine
 10
268.4819682611
 20
163.9570564743
 30
0.0
 11
265.4019682611
 21
163.9570564743
 31
0.0
  0
LINE
  5
1C6
330
71
100
AcDbEntity
  8
DV1_Standard
  6
HIDDEN2
 62
     7
100
AcDbLine
 10
265.4019682611
 20
163.9570564743
 30
0.0
 11
259.4819682611
 21
163.9570564743
 31
0.0
  0
LINE
  5
1C7
330
71
100
AcDbEntity
  8
DV1_Standard
  6
HIDDEN2
 62
     7
100
AcDbLine
 10
257.4819682611
 20
161.9570564743
 30
0.0
 11
257.4819682611
 21
151.9570564743
 31
0.0
  0
LINE
  5
1C8
330
71
100
AcDbEntity
  8
DV1_Standard
  6
HIDDEN2
 62
     7
100
AcDbLine
 10
253.4819682611
 20
147.9570564743
 30
0.0
 11
239.4819682611
 21
147.9570564743
 31
0.0
  0
LINE
  5
1C9
330
71
100
AcDbEntity
  8
DV1_Standard
  6
HIDDEN2
 62
     7
100
AcDbLine
 10
237.4819682611
 20
145.9570564743
 30
0.0
 11
237.4819682611
 21
135.6260565918
 31
0.0
  0
LINE
  5
1CA
330
71
100
AcDbEntity
  8
DV1_Standard
  6
HIDDEN2
 62
     7
100
AcDbLine
 10
234.197863992
 20
131.6906413275
 30
0.0
 11
203.197863992
 21
126.0513971391
 31
0.0
  0
LINE
  5
1CB
330
71
100
AcDbEntity
  8
DV1_Standard
  6
HIDDEN2
 62
     7
100
AcDbLine
 10
201.7660725302
 20
126.0513971391
 30
0.0
 11
170.7660725302
 21
131.6906413275
 31
0.0
  0
LINE
  5
1CC
330
71
100
AcDbEntity
  8
DV1_Standard
  6
HIDDEN2
 62
     7
100
AcDbLine
 10
167.4819682611
 20
135.6260565918
 30
0.0
 11
167.4819682611
 21
145.9570564743
 31
0.0
  0
LINE
  5
1CD
330
71
100
AcDbEntity
  8
DV1_Standard
  6
HIDDEN2
 62
     7
100
AcDbLine
 10
165.4819682611
 20
147.9570564743
 30
0.0
 11
151.4819682611
 21
147.9570564743
 31
0.0
  0
LINE
  5
1CE
330
71
100
AcDbEntity
  8
DV1_Standard
  6
HIDDEN2
 62
     7
100
AcDbLine
 10
147.4819682611
 20
151.9570564743
 30
0.0
 11
147.4819682611
 21
161.9570564743
 31
0.0
  0
LINE
  5
1CF
330
71
100
AcDbEntity
  8
DV1_Standard
  6
HIDDEN2
 62
     7
100
AcDbLine
 10
145.4819682611
 20
163.9570564743
 30
0.0
 11
139.5619682611
 21
163.9570564743
 31
0.0
  0
LINE
  5
1D0
330
71
100
AcDbEntity
  8
DV1_Standard
  6
Continuous
 62
     7
100
AcDbLine
 10
139.5619682611
 20
163.9570564743
 30
0.0
 11
136.4819682611
 21
163.9570564743
 31
0.0
  0
ARC
  5
1D1
330
71
100
AcDbEntity
  8
DV1_Standard
  6
HIDDEN2
 62
     7
100
AcDbCircle
 10
145.4819682611
 20
161.9570564743
 30
0.0
 40
2.000000000000002
100
AcDbArc
 50
0.0
 51
90.0
  0
ARC
  5
1D2
330
71
100
AcDbEntity
  8
DV1_Standard
  6
HIDDEN2
 62
     7
100
AcDbCircle
 10
151.4819682611
 20
151.9570564743
 30
0.0
 40
4.0
100
AcDbArc
 50
180.0
 51
270.0
  0
ARC
  5
1D3
330
71
100
AcDbEntity
  8
DV1_Standard
  6
HIDDEN2
 62
     7
100
AcDbCircle
 10
165.4819682611
 20
145.9570564743
 30
0.0
 40
2.000000000000002
100
AcDbArc
 50
0.0
 51
90.0
  0
ARC
  5
1D4
330
71
100
AcDbEntity
  8
DV1_Standard
  6
HIDDEN2
 62
     7
100
AcDbCircle
 10
171.4819682611
 20
135.6260565918
 30
0.0
 40
4.0
100
AcDbArc
 50
180.0
 51
259.69
  0
ARC
  5
1D5
330
71
100
AcDbEntity
  8
DV1_Standard
  6
HIDDEN2
 62
     7
100
AcDbCircle
 10
202.4819682611
 20
129.9868124034
 30
0.0
 40
3.999999999999999
100
AcDbArc
 50
259.69
 51
280.31
  0
ARC
  5
1D6
330
71
100
AcDbEntity
  8
DV1_Standard
  6
HIDDEN2
 62
     7
100
AcDbCircle
 10
233.4819682611
 20
135.6260565918
 30
0.0
 40
4.000000000000004
100
AcDbArc
 50
280.31
 51
0.0
  0
ARC
  5
1D7
330
71
100
AcDbEntity
  8
DV1_Standard
  6
HIDDEN2
 62
     7
100
AcDbCircle
 10
239.4819682611
 20
145.9570564743
 30
0.0
 40
2.000000000000002
100
AcDbArc
 50
90.0
 51
180.0
  0
ARC
  5
1D8
330
71
100
AcDbEntity
  8
DV1_Standard
  6
HIDDEN2
 62
     7
100
AcDbCircle
 10
253.4819682611
 20
151.9570564743
 30
0.0
 40
3.999999999999996
100
AcDbArc
 50
270.0
 51
360.0
  0
ARC
  5
1D9
330
71
100
AcDbEntity
  8
DV1_Standard
  6
HIDDEN2
 62
     7
100
AcDbCircle
 10
259.4819682611
 20
161.9570564743
 30
0.0
 40
1.999999999999995
100
AcDbArc
 50
90.0
 51
180.0
  0
ARC
  5
1DA
330
71
100
AcDbEntity
  8
DV1_Standard
  6
HIDDEN2
 62
     7
100
AcDbCircle
 10
259.4819682611
 20
161.9570564743
 30
0.0
 40
3.999999999999996
100
AcDbArc
 50
90.0
 51
151.0449756281
  0
ARC
  5
1DB
330
71
100
AcDbEntity
  8
DV1_Standard
  6
Continuous
 62
     7
100
AcDbCircle
 10
259.4819682611
 20
161.9570564743
 30
0.0
 40
3.999999999999996
100
AcDbArc
 50
151.0449756281
 51
180.0
  0
LINE
  5
1DC
330
71
100
AcDbEntity
  8
DV1_Standard
  6
Continuous
 62
     7
100
AcDbLine
 10
255.4819682611
 20
153.9570564743
 30
0.0
 11
255.4819682611
 21
151.9570564743
 31
0.0
  0
ARC
  5
1DD
330
71
100
AcDbEntity
  8
DV1_Standard
  6
Continuous
 62
     7
100
AcDbCircle
 10
253.4819682611
 20
151.9570564743
 30
0.0
 40
2.000000000000002
100
AcDbArc
 50
270.0
 51
360.0
  0
LINE
  5
1DE
330
71
100
AcDbEntity
  8
DV1_Standard
  6
Continuous
 62
     7
100
AcDbLine
 10
253.4819682611
 20
149.9570564743
 30
0.0
 11
251.4819682611
 21
149.9570564743
 31
0.0
  0
ARC
  5
1DF
330
71
100
AcDbEntity
  8
DV1_Standard
  6
Continuous
 62
     7
100
AcDbCircle
 10
239.4819682611
 20
145.9570564743
 30
0.0
 40
4.0
100
AcDbArc
 50
90.0
 51
180.0
  0
LINE
  5
1E0
330
71
100
AcDbEntity
  8
DV1_Standard
  6
Continuous
 62
     7
100
AcDbLine
 10
235.4819682611
 20
137.5950567092
 30
0.0
 11
235.4819682611
 21
135.6260565918
 31
0.0
  0
ARC
  5
1E1
330
71
100
AcDbEntity
  8
DV1_Standard
  6
Continuous
 62
     7
100
AcDbCircle
 10
233.4819682611
 20
135.6260565918
 30
0.0
 40
2.000000000000002
100
AcDbArc
 50
280.31
 51
0.0
  0
LINE
  5
1E2
330
71
100
AcDbEntity
  8
DV1_Standard
  6
Continuous
 62
     7
100
AcDbLine
 10
233.8399161266
 20
133.6583489596
 30
0.0
 11
202.8399161266
 21
128.0191047712
 31
0.0
  0
ARC
  5
1E3
330
71
100
AcDbEntity
  8
DV1_Standard
  6
Continuous
 62
     7
100
AcDbCircle
 10
202.4819682611
 20
129.9868124034
 30
0.0
 40
2.000000000000001
100
AcDbArc
 50
259.69
 51
280.31
  0
LINE
  5
1E4
330
71
100
AcDbEntity
  8
DV1_Standard
  6
Continuous
 62
     7
100
AcDbLine
 10
202.1240203957
 20
128.0191047712
 30
0.0
 11
171.1240203957
 21
133.6583489596
 31
0.0
  0
ARC
  5
1E5
330
71
100
AcDbEntity
  8
DV1_Standard
  6
Continuous
 62
     7
100
AcDbCircle
 10
171.4819682611
 20
135.6260565918
 30
0.0
 40
2.0
100
AcDbArc
 50
180.0
 51
259.69
  0
LINE
  5
1E6
330
71
100
AcDbEntity
  8
DV1_Standard
  6
Continuous
 62
     7
100
AcDbLine
 10
169.4819682611
 20
135.6260565918
 30
0.0
 11
169.4819682611
 21
137.5950567092
 31
0.0
  0
ARC
  5
1E7
330
71
100
AcDbEntity
  8
DV1_Standard
  6
Continuous
 62
     7
100
AcDbCircle
 10
165.4819682611
 20
145.9570564743
 30
0.0
 40
4.000000000000004
100
AcDbArc
 50
0.0
 51
90.0
  0
LINE
  5
1E8
330
71
100
AcDbEntity
  8
DV1_Standard
  6
Continuous
 62
     7
100
AcDbLine
 10
153.4819682611
 20
149.9570564743
 30
0.0
 11
151.4819682611
 21
149.9570564743
 31
0.0
  0
ARC
  5
1E9
330
71
100
AcDbEntity
  8
DV1_Standard
  6
Continuous
 62
     7
100
AcDbCircle
 10
151.4819682611
 20
151.9570564743
 30
0.0
 40
1.999999999999998
100
AcDbArc
 50
180.0
 51
270.0
  0
LINE
  5
1EA
330
71
100
AcDbEntity
  8
DV1_Standard
  6
Continuous
 62
     7
100
AcDbLine
 10
149.4819682611
 20
151.9570564743
 30
0.0
 11
149.4819682611
 21
153.9570564743
 31
0.0
  0
ARC
  5
1EB
330
71
100
AcDbEntity
  8
DV1_Standard
  6
Continuous
 62
     7
100
AcDbCircle
 10
145.4819682611
 20
161.9570564743
 30
0.0
 40
3.999999999999996
100
AcDbArc
 50
0.0
 51
28.9550243719
  0
ARC
  5
1EC
330
71
100
AcDbEntity
  8
DV1_Standard
  6
HIDDEN2
 62
     7
100
AcDbCircle
 10
145.4819682611
 20
161.9570564743
 30
0.0
 40
3.999999999999996
100
AcDbArc
 50
28.9550243719
 51
90.0
  0
LINE
  5
1ED
330
71
100
AcDbEntity
  8
DV1_Standard
  6
HIDDEN2
 62
     7
100
AcDbLine
 10
292.9819682611
 20
163.9570564743
 30
0.0
 11
292.9819682611
 21
165.9570564743
 31
0.0
  0
LINE
  5
1EE
330
71
100
AcDbEntity
  8
DV1_Standard
  6
HIDDEN2
 62
     7
100
AcDbLine
 10
262.9819682611
 20
165.9570564743
 30
0.0
 11
262.9819682611
 21
163.9570564743
 31
0.0
  0
LINE
  5
1EF
330
71
100
AcDbEntity
  8
DV1_Standard
  6
HIDDEN2
 62
     7
100
AcDbLine
 10
141.9819682611
 20
163.9570564743
 30
0.0
 11
141.9819682611
 21
165.9570564743
 31
0.0
  0
LINE
  5
1F0
330
71
100
AcDbEntity
  8
DV1_Standard
  6
HIDDEN2
 62
     7
100
AcDbLine
 10
111.9819682611
 20
165.9570564743
 30
0.0
 11
111.9819682611
 21
163.9570564743
 31
0.0
  0
LINE
  5
1F1
330
71
100
AcDbEntity
  8
DV1_Standard
  6
HIDDEN2
 62
     7
100
AcDbLine
 10
201.4751831103
 20
126.1043131543
 30
0.0
 11
201.8331309757
 21
128.0720207864
 31
0.0
  0
LINE
  5
1F2
330
71
100
AcDbEntity
  8
DV1_Standard
  6
HIDDEN2
 62
     7
100
AcDbLine
 10
172.3175164935
 20
133.4412387682
 30
0.0
 11
171.959568628
 21
131.4735311361
 31
0.0
  0
LINE
  5
1F3
330
71
100
AcDbEntity
  8
DV1_Standard
  6
HIDDEN2
 62
     7
100
AcDbLine
 10
233.0043678942
 20
131.4735311361
 30
0.0
 11
232.6464200288
 21
133.4412387682
 31
0.0
  0
LINE
  5
1F4
330
71
100
AcDbEntity
  8
DV1_Standard
  6
HIDDEN2
 62
     7
100
AcDbLine
 10
203.1308055466
 20
128.0720207864
 30
0.0
 11
203.488753412
 21
126.1043131543
 31
0.0
  0
ENDBLK
  5
1F6
330
71
100
AcDbEntity
  8
0
100
AcDbBlockEnd
  0
BLOCK
  5
1F9
330
1F8
100
AcDbEntity
  8
0
100
AcDbBlockBegin
  2
_Oblique
 70
     0
 10
0.0
 20
0.0
 30
0.0
  3
_Oblique
  1

  0
LINE
  5
1FB
330
1F8
100
AcDbEntity
  8
0
  6
ByBlock
 62
     0
370
    -2
100
AcDbLine
 10
-0.5
 20
-0.5
 30
0.0
 11
0.5
 21
0.5
 31
0.0
  0
ENDBLK
  5
1FA
330
1F8
100
AcDbEntity
  8
0
100
AcDbBlockEnd
  0
BLOCK
  5
1FD
330
1FC
100
AcDbEntity
  8
0
100
AcDbBlockBegin
  2
_Dot
 70
     0
 10
0.0
 20
0.0
 30
0.0
  3
_Dot
  1

  0
LWPOLYLINE
  5
1FF
330
1FC
100
AcDbEntity
  8
0
  6
ByBlock
 62
     0
100
AcDbPolyline
 90
        2
 70
     1
 43
0.5
 10
-0.25
 20
0.0
 42
1.0
 10
0.25
 20
0.0
 42
1.0
  0
LINE
  5
200
330
1FC
100
AcDbEntity
  8
0
  6
ByBlock
 62
     0
370
    -2
100
AcDbLine
 10
-0.5
 20
0.0
 30
0.0
 11
-1.0
 21
0.0
 31
0.0
  0
ENDBLK
  5
1FE
330
1FC
100
AcDbEntity
  8
0
100
AcDbBlockEnd
  0
BLOCK
  5
204
330
201
100
AcDbEntity
  8
0
100
AcDbBlockBegin
  2
_SE_FILLED
 70
     0
 10
0.0
 20
0.0
 30
0.0
  3
_SE_FILLED
  1

  0
SOLID
  5
202
330
201
100
AcDbEntity
  8
0
 62
     0
100
AcDbTrace
 10
0.0
 20
0.0
 30
0.0
 11
-1.0
 21
-0.1665
 31
0.0
 12
-1.0
 22
0.1665
 32
0.0
 13
0.0
 23
0.0
 33
0.0
  0
LINE
  5
203
330
201
100
AcDbEntity
  8
0
 62
     0
100
AcDbLine
 10
0.0
 20
0.0
 30
0.0
 11
-1.0
 21
0.0
 31
0.0
  0
ENDBLK
  5
205
330
201
100
AcDbEntity
  8
0
100
AcDbBlockEnd
  0
BLOCK
  5
210
330
209
100
AcDbEntity
  8
0
100
AcDbBlockBegin
  2
DMBLK68
 70
     0
 10
0.0
 20
0.0
 30
0.0
  3
DMBLK68
  1

  0
HATCH
  5
20A
330
209
100
AcDbEntity
  8
Standard
  6
Continuous
 62
     7
100
AcDbHatch
 10
0.0
 20
0.0
 30
0.0
210
0.0
220
0.0
230
1.0
  2
SOLID
 70
     1
 71
     0
 91
        1
 92
        1
 93
        3
 72
     1
 10
154.9819683691666
 20
186.7707348736866
 11
151.4819682611331
 21
186.1874015223477
 72
     1
 10
151.4819682611331
 20
186.1874015223477
 11
154.9819683691666
 21
185.6040681710088
 72
     1
 10
154.9819683691666
 20
185.6040681710088
 11
154.9819683691666
 21
186.7707348736866
 97
        0
 75
     0
 76
     1
 98
        0
  0
HATCH
  5
20B
330
209
100
AcDbEntity
  8
Standard
  6
Continuous
 62
     7
100
AcDbHatch
 10
0.0
 20
0.0
 30
0.0
210
0.0
220
0.0
230
1.0
  2
SOLID
 70
     1
 71
     0
 91
        1
 92
        1
 93
        3
 72
     1
 10
249.9819662457511
 20
186.7707348736866
 11
249.9819662457511
 21
185.6040681710088
 72
     1
 10
249.9819662457511
 20
185.6040681710088
 11
253.4819663537845
 21
186.1874015223477
 72
     1
 10
253.4819663537845
 20
186.1874015223477
 11
249.9819662457511
 21
186.7707348736866
 97
        0
 75
     0
 76
     1
 98
        0
  0
LINE
  5
20C
330
209
100
AcDbEntity
  8
Standard
  6
Continuous
 62
     7
100
AcDbLine
 10
151.4819682611
 20
173.9570564743
 30
0.0
 11
151.4819682611
 21
187.9374015764
 31
0.0
  0
LINE
  5
20D
330
209
100
AcDbEntity
  8
Standard
  6
Continuous
 62
     7
100
AcDbLine
 10
253.4819682611
 20
173.9570564743
 30
0.0
 11
253.4819682611
 21
187.9374015764
 31
0.0
  0
LINE
  5
20E
330
209
100
AcDbEntity
  8
Standard
  6
Continuous
 62
     7
100
AcDbLine
 10
151.4819682611
 20
186.1874015223
 30
0.0
 11
253.4819663538
 21
186.1874015223
 31
0.0
  0
TEXT
  5
20F
330
209
100
AcDbEntity
  8
Standard
  6
Continuous
 62
     7
100
AcDbText
 10
197.1482716553
 20
187.0624015223
 30
0.0
 40
3.5
  1
101
  7
SEACAD_Solid_Edge_ANSI
 11
197.1482716553
 21
190.5624015223
 31
0.0
100
AcDbText
 73
     3
  0
ENDBLK
  5
211
330
209
100
AcDbEntity
  8
0
100
AcDbBlockEnd
  0
BLOCK
  5
21A
330
213
100
AcDbEntity
  8
0
100
AcDbBlockBegin
  2
DMBLK69
 70
     0
 10
0.0
 20
0.0
 30
0.0
  3
DMBLK69
  1

  0
HATCH
  5
214
330
213
100
AcDbEntity
  8
Standard
  6
Continuous
 62
     7
100
AcDbHatch
 10
0.0
 20
0.0
 30
0.0
210
0.0
220
0.0
230
1.0
  2
SOLID
 70
     1
 71
     0
 91
        1
 92
        1
 93
        3
 72
     1
 10
294.9819681530996
 20
199.7956807213764
 11
294.9819681530996
 21
198.6290140186986
 72
     1
 10
294.9819681530996
 20
198.6290140186986
 11
298.481968261133
 21
199.2123473700375
 72
     1
 10
298.481968261133
 20
199.2123473700375
 11
294.9819681530996
 21
199.7956807213764
 97
        0
 75
     0
 76
     1
 98
        0
  0
HATCH
  5
215
330
213
100
AcDbEntity
  8
Standard
  6
Continuous
 62
     7
100
AcDbHatch
 10
0.0
 20
0.0
 30
0.0
210
0.0
220
0.0
230
1.0
  2
SOLID
 70
     1
 71
     0
 91
        1
 92
        1
 93
        3
 72
     1
 10
109.9819667002364
 20
199.7956807213764
 11
106.481966592203
 21
199.2123473700375
 72
     1
 10
106.481966592203
 20
199.2123473700375
 11
109.9819667002364
 21
198.6290140186986
 72
     1
 10
109.9819667002364
 20
198.6290140186986
 11
109.9819667002364
 21
199.7956807213764
 97
        0
 75
     0
 76
     1
 98
        0
  0
LINE
  5
216
330
213
100
AcDbEntity
  8
Standard
  6
Continuous
 62
     7
100
AcDbLine
 10
298.4819682611
 20
161.9570564743
 30
0.0
 11
298.4819682611
 21
200.9623474241
 31
0.0
  0
LINE
  5
217
330
213
100
AcDbEntity
  8
Standard
  6
Continuous
 62
     7
100
AcDbLine
 10
106.4819682611
 20
161.9570564743
 30
0.0
 11
106.4819682611
 21
200.9623474241
 31
0.0
  0
LINE
  5
218
330
213
100
AcDbEntity
  8
Standard
  6
Continuous
 62
     7
100
AcDbLine
 10
298.4819682611
 20
199.21234737
 30
0.0
 11
106.4819665922
 21
199.21234737
 31
0.0
  0
TEXT
  5
219
330
213
100
AcDbEntity
  8
Standard
  6
Continuous
 62
     7
100
AcDbText
 10
198.3732717745
 20
200.08734737
 30
0.0
 40
3.5
  1
192
  7
SEACAD_Solid_Edge_ANSI
 11
198.3732717745
 21
203.58734737
 31
0.0
100
AcDbText
 73
     3
  0
ENDBLK
  5
21B
330
213
100
AcDbEntity
  8
0
100
AcDbBlockEnd
  0
BLOCK
  5
224
330
21D
100
AcDbEntity
  8
0
100
AcDbBlockBegin
  2
DMBLK70
 70
     0
 10
0.0
 20
0.0
 30
0.0
  3
DMBLK70
  1

  0
HATCH
  5
21E
330
21D
100
AcDbEntity
  8
Standard
  6
Continuous
 62
     7
100
AcDbHatch
 10
0.0
 20
0.0
 30
0.0
210
0.0
220
0.0
230
1.0
  2
SOLID
 70
     1
 71
     0
 91
        1
 92
        1
 93
        3
 72
     1
 10
314.3891668398732
 20
119.4570565823705
 11
313.2225001371954
 21
119.4570565823705
 72
     1
 10
313.2225001371954
 20
119.4570565823705
 11
313.8058334885343
 21
115.9570564743371
 72
     1
 10
313.8058334885343
 20
115.9570564743371
 11
314.3891668398732
 21
119.4570565823705
 97
        0
 75
     0
 76
     1
 98
        0
  0
HATCH
  5
21F
330
21D
100
AcDbEntity
  8
Standard
  6
Continuous
 62
     7
100
AcDbHatch
 10
0.0
 20
0.0
 30
0.0
210
0.0
220
0.0
230
1.0
  2
SOLID
 70
     1
 71
     0
 91
        1
 92
        1
 93
        3
 72
     1
 10
314.3891668398732
 20
164.4570574391872
 11
313.8058334885343
 21
167.9570575472206
 72
     1
 10
313.8058334885343
 20
167.9570575472206
 11
313.2225001371954
 21
164.4570574391872
 72
     1
 10
313.2225001371954
 20
164.4570574391872
 11
314.3891668398732
 21
164.4570574391872
 97
        0
 75
     0
 76
     1
 98
        0
  0
LINE
  5
220
330
21D
100
AcDbEntity
  8
Standard
  6
Continuous
 62
     7
100
AcDbLine
 10
298.4819682611
 20
115.9570564743
 30
0.0
 11
315.5558335426
 21
115.9570564743
 31
0.0
  0
LINE
  5
221
330
21D
100
AcDbEntity
  8
Standard
  6
Continuous
 62
     7
100
AcDbLine
 10
298.4819682611
 20
167.9570564743
 30
0.0
 11
315.5558335426
 21
167.9570564743
 31
0.0
  0
LINE
  5
222
330
21D
100
AcDbEntity
  8
Standard
  6
Continuous
 62
     7
100
AcDbLine
 10
313.8058334885
 20
115.9570564743
 30
0.0
 11
313.8058334885
 21
167.9570575472
 31
0.0
  0
TEXT
  5
223
330
21D
100
AcDbEntity
  8
Standard
  6
Continuous
 62
     7
100
AcDbText
 10
312.9308334885
 20
137.992926576
 30
0.0
 40
3.5
  1
50
 50
90.0
  7
SEACAD_Solid_Edge_ANSI
 11
309.4308334885
 21
137.992926576
 31
0.0
100
AcDbText
 73
     3
  0
ENDBLK
  5
225
330
21D
100
AcDbEntity
  8
0
100
AcDbBlockEnd
  0
BLOCK
  5
22F
330
227
100
AcDbEntity
  8
0
100
AcDbBlockBegin
  2
DMBLK71
 70
     0
 10
0.0
 20
0.0
 30
0.0
  3
DMBLK71
  1

  0
HATCH
  5
228
330
227
100
AcDbEntity
  8
Standard
  6
Continuous
 62
     7
100
AcDbHatch
 10
0.0
 20
0.0
 30
0.0
210
0.0
220
0.0
230
1.0
  2
SOLID
 70
     1
 71
     0
 91
        1
 92
        1
 93
        3
 72
     1
 10
328.3891663406844
 20
164.4570563663036
 11
327.8058329893454
 21
167.957056474337
 72
     1
 10
327.8058329893454
 20
167.957056474337
 11
327.2224996380065
 21
164.4570563663036
 72
     1
 10
327.2224996380065
 20
164.4570563663036
 11
328.3891663406844
 21
164.4570563663036
 97
        0
 75
     0
 76
     1
 98
        0
  0
HATCH
  5
229
330
227
100
AcDbEntity
  8
Standard
  6
Continuous
 62
     7
100
AcDbHatch
 10
0.0
 20
0.0
 30
0.0
210
0.0
220
0.0
230
1.0
  2
SOLID
 70
     1
 71
     0
 91
        1
 92
        1
 93
        3
 72
     1
 10
328.3891663406844
 20
116.4570568803937
 11
327.2224996380065
 21
116.4570568803937
 72
     1
 10
327.2224996380065
 20
116.4570568803937
 11
327.8058329893454
 21
112.9570567723602
 72
     1
 10
327.8058329893454
 20
112.9570567723602
 11
328.3891663406844
 21
116.4570568803937
 97
        0
 75
     0
 76
     1
 98
        0
  0
LINE
  5
22A
330
227
100
AcDbEntity
  8
Standard
  6
Continuous
 62
     7
100
AcDbLine
 10
298.4819682611
 20
167.9570564743
 30
0.0
 11
329.5558330434
 21
167.9570564743
 31
0.0
  0
LINE
  5
22B
330
227
100
AcDbEntity
  8
Standard
  6
Continuous
 62
     7
100
AcDbLine
 10
298.4819682611
 20
112.9570564743
 30
0.0
 11
329.5558330434
 21
112.9570564743
 31
0.0
  0
LINE
  5
22C
330
227
100
AcDbEntity
  8
Standard
  6
Continuous
 62
     7
100
AcDbLine
 10
327.8058329893
 20
167.9570564743
 30
0.0
 11
327.8058329893
 21
112.9570567724
 31
0.0
  0
TEXT
  5
22D
330
227
100
AcDbEntity
  8
Standard
  6
Continuous
 62
     7
100
AcDbText
 10
326.9308329893
 20
143.6222740147
 30
0.0
 40
3.5
  1
55
 50
90.0
  7
SEACAD_Solid_Edge_ANSI
 11
323.4308329893
 21
143.6222740147
 31
0.0
100
AcDbText
 73
     3
  0
TEXT
  5
22E
330
227
100
AcDbEntity
  8
Standard
  6
Continuous
 62
     7
100
AcDbText
 10
326.9308329893
 20
131.8135783625
 30
0.0
 40
3.5
  1
min.
 50
90.0
  7
SEACAD_Solid_Edge_ANSI
 11
323.4308329893
 21
131.8135783625
 31
0.0
100
AcDbText
 73
     3
  0
ENDBLK
  5
230
330
227
100
AcDbEntity
  8
0
100
AcDbBlockEnd
  0
BLOCK
  5
23A
330
232
100
AcDbEntity
  8
0
100
AcDbBlockBegin
  2
DMBLK72
 70
     0
 10
0.0
 20
0.0
 30
0.0
  3
DMBLK72
  1

  0
HATCH
  5
233
330
232
100
AcDbEntity
  8
Standard
  6
Continuous
 62
     7
100
AcDbHatch
 10
0.0
 20
0.0
 30
0.0
210
0.0
220
0.0
230
1.0
  2
SOLID
 70
     1
 71
     0
 91
        1
 92
        1
 93
        3
 72
     1
 10
85.3978259555553
 20
164.4570563663036
 11
86.56449265823312
 21
164.4570563663036
 72
     1
 10
86.5644926582331
 20
164.4570563663036
 11
85.9811593068942
 21
167.957056474337
 72
     1
 10
85.9811593068942
 20
167.957056474337
 11
85.39782595555529
 21
164.4570563663036
 97
        0
 75
     0
 76
     1
 98
        0
  0
HATCH
  5
234
330
232
100
AcDbEntity
  8
Standard
  6
Continuous
 62
     7
100
AcDbHatch
 10
0.0
 20
0.0
 30
0.0
210
0.0
220
0.0
230
1.0
  2
SOLID
 70
     1
 71
     0
 91
        1
 92
        1
 93
        3
 72
     1
 10
85.3978259555553
 20
86.45705568830076
 11
85.98115930689421
 21
82.95705558026734
 72
     1
 10
85.9811593068942
 20
82.95705558026734
 11
86.5644926582331
 21
86.45705568830076
 72
     1
 10
86.5644926582331
 20
86.45705568830076
 11
85.39782595555529
 21
86.45705568830076
 97
        0
 75
     0
 76
     1
 98
        0
  0
LINE
  5
235
330
232
100
AcDbEntity
  8
Standard
  6
Continuous
 62
     7
100
AcDbLine
 10
106.4819682611
 20
167.9570564743
 30
0.0
 11
84.2311592529
 21
167.9570564743
 31
0.0
  0
LINE
  5
236
330
232
100
AcDbEntity
  8
Standard
  6
Continuous
 62
     7
100
AcDbLine
 10
106.4819681661
 20
82.9570564743
 30
0.0
 11
84.2311592529
 21
82.9570564743
 31
0.0
  0
LINE
  5
237
330
232
100
AcDbEntity
  8
Standard
  6
Continuous
 62
     7
100
AcDbLine
 10
85.9811593069
 20
167.9570564743
 30
0.0
 11
85.9811593069
 21
82.9570555803
 31
0.0
  0
TEXT
  5
238
330
232
100
AcDbEntity
  8
Standard
  6
Continuous
 62
     7
100
AcDbText
 10
85.1061593069
 20
129.269012549
 30
0.0
 40
3.5
  1
85
 50
90.0
  7
SEACAD_Solid_Edge_ANSI
 11
81.6061593069
 21
129.269012549
 31
0.0
100
AcDbText
 73
     3
  0
TEXT
  5
239
330
232
100
AcDbEntity
  8
Standard
  6
Continuous
 62
     7
100
AcDbText
 10
85.1061593069
 20
116.166838636
 30
0.0
 40
3.5
  1
max.
 50
90.0
  7
SEACAD_Solid_Edge_ANSI
 11
81.6061593069
 21
116.166838636
 31
0.0
100
AcDbText
 73
     3
  0
ENDBLK
  5
23B
330
232
100
AcDbEntity
  8
0
100
AcDbBlockEnd
  0
BLOCK
  5
26F
330
23E
100
AcDbEntity
  8
0
100
AcDbBlockBegin
  2
Rahmen_A3-quer
 70
     0
 10
0.0
 20
0.0
 30
0.0
  3
Rahmen_A3-quer
  1

  0
LINE
  5
23F
330
23E
100
AcDbEntity
  8
DIN-Vorlage
  6
Continuous
 62
     7
100
AcDbLine
 10
0.0
 20
0.0
 30
0.0
 11
0.0
 21
297.0
 31
0.0
  0
LINE
  5
240
330
23E
100
AcDbEntity
  8
DIN-Vorlage
  6
Continuous
 62
     7
100
AcDbLine
 10
0.0
 20
297.0
 30
0.0
 11
420.0
 21
297.0
 31
0.0
  0
LINE
  5
241
330
23E
100
AcDbEntity
  8
DIN-Vorlage
  6
Continuous
 62
     7
100
AcDbLine
 10
420.0
 20
297.0
 30
0.0
 11
420.0
 21
0.0
 31
0.0
  0
LINE
  5
242
330
23E
100
AcDbEntity
  8
DIN-Vorlage
  6
Continuous
 62
     7
100
AcDbLine
 10
420.0
 20
0.0
 30
0.0
 11
0.0
 21
0.0
 31
0.0
  0
LINE
  5
243
330
23E
100
AcDbEntity
  8
DIN-Vorlage
  6
Continuous
 62
     7
100
AcDbLine
 10
125.0
 20
297.0
 30
0.0
 11
125.0
 21
292.0
 31
0.0
  0
LINE
  5
244
330
23E
100
AcDbEntity
  8
DIN-Vorlage
  6
Continuous
 62
     7
100
AcDbLine
 10
230.0
 20
297.0
 30
0.0
 11
230.0
 21
292.0
 31
0.0
  0
LINE
  5
245
330
23E
100
AcDbEntity
  8
DIN-Vorlage
  6
Continuous
 62
     7
100
AcDbLine
 10
125.0
 20
0.0
 30
0.0
 11
125.0
 21
5.0
 31
0.0
  0
LINE
  5
246
330
23E
100
AcDbEntity
  8
DIN-Vorlage
  6
Continuous
 62
     7
100
AcDbLine
 10
230.0
 20
0.0
 30
0.0
 11
230.0
 21
5.0
 31
0.0
  0
LINE
  5
247
330
23E
100
AcDbEntity
  8
DIN-Vorlage
  6
Continuous
 62
     7
100
AcDbLine
 10
0.0
 20
148.5
 30
0.0
 11
15.0
 21
148.5
 31
0.0
  0
LINE
  5
248
330
23E
100
AcDbEntity
  8
DIN-Vorlage
  6
Continuous
 62
     7
100
AcDbLine
 10
420.0
 20
148.5
 30
0.0
 11
419.82
 21
148.5
 31
0.0
  0
LINE
  5
249
330
23E
100
AcDbEntity
  8
DIN-Vorlage
  6
Continuous
 62
     7
100
AcDbLine
 10
15.0
 20
5.0
 30
0.0
 11
15.0
 21
292.0
 31
0.0
  0
LINE
  5
24A
330
23E
100
AcDbEntity
  8
DIN-Vorlage
  6
Continuous
 62
     7
100
AcDbLine
 10
15.0
 20
292.0
 30
0.0
 11
415.36
 21
292.0
 31
0.0
  0
LINE
  5
24B
330
23E
100
AcDbEntity
  8
DIN-Vorlage
  6
Continuous
 62
     7
100
AcDbLine
 10
415.36
 20
292.0
 30
0.0
 11
415.36
 21
5.0
 31
0.0
  0
LINE
  5
24C
330
23E
100
AcDbEntity
  8
DIN-Vorlage
  6
Continuous
 62
     7
100
AcDbLine
 10
415.36
 20
5.0
 30
0.0
 11
15.0
 21
5.0
 31
0.0
  0
LINE
  5
24D
330
23E
100
AcDbEntity
  8
DIN-Vorlage
  6
Continuous
 62
     7
100
AcDbLine
 10
210.0
 20
292.0
 30
0.0
 11
210.0
 21
282.0
 31
0.0
  0
LINE
  5
24E
330
23E
100
AcDbEntity
  8
DIN-Vorlage
  6
Continuous
 62
     7
100
AcDbLine
 10
15.0
 20
148.5
 30
0.0
 11
25.0
 21
148.5
 31
0.0
  0
LINE
  5
24F
330
23E
100
AcDbEntity
  8
DIN-Vorlage
  6
Continuous
 62
     7
100
AcDbLine
 10
415.36
 20
148.5
 30
0.0
 11
405.36
 21
148.5
 31
0.0
  0
LINE
  5
250
330
23E
100
AcDbEntity
  8
DIN-Vorlage
  6
Continuous
 62
     7
100
AcDbLine
 10
210.0
 20
5.0
 30
0.0
 11
210.0
 21
15.0
 31
0.0
  0
MTEXT
  5
251
330
23E
100
AcDbEntity
  8
DIN-Vorlage
100
AcDbMText
 10
16.2065167391
 20
26.749405
 30
0.0
 40
3.5
 41
1.8802435581
 46
5.8604751163
 71
     4
 72
     1
  1
{\fSolid Edge ISO|b0||i0||c0|p34;\C7;\H3.5;\W0.9;F}
  7
SEACAD_Solid_Edge_ISO
 73
     1
 44
1.0
1001
ACAD
1000
ACAD_MTEXT_DEFINED_HEIGHT_BEGIN
1070
    46
1040
5.8604751163
1000
ACAD_MTEXT_DEFINED_HEIGHT_END
  0
LINE
  5
252
330
23E
100
AcDbEntity
  8
DIN-Vorlage
  6
Continuous
 62
     7
100
AcDbLine
 10
15.0
 20
48.5
 30
0.0
 11
20.0
 21
48.5
 31
0.0
  0
MTEXT
  5
253
330
23E
100
AcDbEntity
  8
DIN-Vorlage
100
AcDbMText
 10
16.0543428261
 20
73.499405
 30
0.0
 40
3.5
 41
1.8802435581
 46
5.8604751163
 71
     4
 72
     1
  1
{\fSolid Edge ISO|b0||i0||c0|p34;\C7;\H3.5;\W0.9;E}
  7
SEACAD_Solid_Edge_ISO
 73
     1
 44
1.0
1001
ACAD
1000
ACAD_MTEXT_DEFINED_HEIGHT_BEGIN
1070
    46
1040
5.8604751163
1000
ACAD_MTEXT_DEFINED_HEIGHT_END
  0
LINE
  5
254
330
23E
100
AcDbEntity
  8
DIN-Vorlage
  6
Continuous
 62
     7
100
AcDbLine
 10
15.0
 20
98.5
 30
0.0
 11
20.0
 21
98.5
 31
0.0
  0
MTEXT
  5
255
330
23E
100
AcDbEntity
  8
DIN-Vorlage
100
AcDbMText
 10
15.9402123913
 20
123.499405
 30
0.0
 40
3.5
 41
2.0593133256
 46
5.8604751163
 71
     4
 72
     1
  1
{\fSolid Edge ISO|b0||i0||c0|p34;\C7;\H3.5;\W0.9;D}
  7
SEACAD_Solid_Edge_ISO
 73
     1
 44
1.0
1001
ACAD
1000
ACAD_MTEXT_DEFINED_HEIGHT_BEGIN
1070
    46
1040
5.8604751163
1000
ACAD_MTEXT_DEFINED_HEIGHT_END
  0
LINE
  5
256
330
23E
100
AcDbEntity
  8
DIN-Vorlage
  6
Continuous
 62
     7
100
AcDbLine
 10
15.0
 20
148.5
 30
0.0
 11
20.0
 21
148.5
 31
0.0
  0
MTEXT
  5
257
330
23E
100
AcDbEntity
  8
DIN-Vorlage
100
AcDbMText
 10
15.9402123913
 20
173.499405
 30
0.0
 40
3.5
 41
1.8802435581
 46
5.8604751163
 71
     4
 72
     1
  1
{\fSolid Edge ISO|b0||i0||c0|p34;\C7;\H3.5;\W0.9;C}
  7
SEACAD_Solid_Edge_ISO
 73
     1
 44
1.0
1001
ACAD
1000
ACAD_MTEXT_DEFINED_HEIGHT_BEGIN
1070
    46
1040
5.8604751163
1000
ACAD_MTEXT_DEFINED_HEIGHT_END
  0
LINE
  5
258
330
23E
100
AcDbEntity
  8
DIN-Vorlage
  6
Continuous
 62
     7
100
AcDbLine
 10
15.0
 20
198.5
 30
0.0
 11
20.0
 21
198.5
 31
0.0
  0
MTEXT
  5
259
330
23E
100
AcDbEntity
  8
DIN-Vorlage
100
AcDbMText
 10
16.0543428261
 20
223.499405
 30
0.0
 40
3.5
 41
1.9697784419
 46
5.8604751163
 71
     4
 72
     1
  1
{\fSolid Edge ISO|b0||i0||c0|p34;\C7;\H3.5;\W0.9;B}
  7
SEACAD_Solid_Edge_ISO
 73
     1
 44
1.0
1001
ACAD
1000
ACAD_MTEXT_DEFINED_HEIGHT_BEGIN
1070
    46
1040
5.8604751163
1000
ACAD_MTEXT_DEFINED_HEIGHT_END
  0
LINE
  5
25A
330
23E
100
AcDbEntity
  8
DIN-Vorlage
  6
Continuous
 62
     7
100
AcDbLine
 10
15.0
 20
248.5
 30
0.0
 11
20.0
 21
248.5
 31
0.0
  0
MTEXT
  5
25B
330
23E
100
AcDbEntity
  8
DIN-Vorlage
100
AcDbMText
 10
16.0543428261
 20
270.249405
 30
0.0
 40
3.5
 41
1.9697784419
 46
5.8604751163
 71
     4
 72
     1
  1
{\fSolid Edge ISO|b0||i0||c0|p34;\C7;\H3.5;\W0.9;A}
  7
SEACAD_Solid_Edge_ISO
 73
     1
 44
1.0
1001
ACAD
1000
ACAD_MTEXT_DEFINED_HEIGHT_BEGIN
1070
    46
1040
5.8604751163
1000
ACAD_MTEXT_DEFINED_HEIGHT_END
  0
MTEXT
  5
25C
330
23E
100
AcDbEntity
  8
DIN-Vorlage
100
AcDbMText
 10
36.3206471739
 20
289.499405
 30
0.0
 40
3.5
 41
1.4325691395
 46
5.8604751163
 71
     4
 72
     1
  1
{\fSolid Edge ISO|b0||i0||c0|p34;\C7;\H3.5;\W0.9;1}
  7
SEACAD_Solid_Edge_ISO
 73
     1
 44
1.0
1001
ACAD
1000
ACAD_MTEXT_DEFINED_HEIGHT_BEGIN
1070
    46
1040
5.8604751163
1000
ACAD_MTEXT_DEFINED_HEIGHT_END
  0
LINE
  5
25D
330
23E
100
AcDbEntity
  8
DIN-Vorlage
  6
Continuous
 62
     7
100
AcDbLine
 10
60.0
 20
292.0
 30
0.0
 11
60.0
 21
287.0
 31
0.0
  0
MTEXT
  5
25E
330
23E
100
AcDbEntity
  8
DIN-Vorlage
100
AcDbMText
 10
83.8206471739
 20
289.499395
 30
0.0
 40
3.5
 41
2.1488482093
 46
5.8604751163
 71
     4
 72
     1
  1
{\fSolid Edge ISO|b0||i0||c0|p34;\C7;\H3.5;\W0.9;2}
  7
SEACAD_Solid_Edge_ISO
 73
     1
 44
1.0
1001
ACAD
1000
ACAD_MTEXT_DEFINED_HEIGHT_BEGIN
1070
    46
1040
5.8604751163
1000
ACAD_MTEXT_DEFINED_HEIGHT_END
  0
LINE
  5
25F
330
23E
100
AcDbEntity
  8
DIN-Vorlage
  6
Continuous
 62
     7
100
AcDbLine
 10
110.0
 20
292.0
 30
0.0
 11
110.0
 21
287.0
 31
0.0
  0
MTEXT
  5
260
330
23E
100
AcDbEntity
  8
DIN-Vorlage
100
AcDbMText
 10
133.8206471739
 20
289.499395
 30
0.0
 40
3.5
 41
1.7907086744
 46
5.8604751163
 71
     4
 72
     1
  1
{\fSolid Edge ISO|b0||i0||c0|p34;\C7;\H3.5;\W0.9;3}
  7
SEACAD_Solid_Edge_ISO
 73
     1
 44
1.0
1001
ACAD
1000
ACAD_MTEXT_DEFINED_HEIGHT_BEGIN
1070
    46
1040
5.8604751163
1000
ACAD_MTEXT_DEFINED_HEIGHT_END
  0
LINE
  5
261
330
23E
100
AcDbEntity
  8
DIN-Vorlage
  6
Continuous
 62
     7
100
AcDbLine
 10
160.0
 20
292.0
 30
0.0
 11
160.0
 21
287.0
 31
0.0
  0
MTEXT
  5
262
330
23E
100
AcDbEntity
  8
DIN-Vorlage
100
AcDbMText
 10
183.8206471739
 20
289.499395
 30
0.0
 40
3.5
 41
2.0593133256
 46
5.8604751163
 71
     4
 72
     1
  1
{\fSolid Edge ISO|b0||i0||c0|p34;\C7;\H3.5;\W0.9;4}
  7
SEACAD_Solid_Edge_ISO
 73
     1
 44
1.0
1001
ACAD
1000
ACAD_MTEXT_DEFINED_HEIGHT_BEGIN
1070
    46
1040
5.8604751163
1000
ACAD_MTEXT_DEFINED_HEIGHT_END
  0
LINE
  5
263
330
23E
100
AcDbEntity
  8
DIN-Vorlage
  6
Continuous
 62
     7
100
AcDbLine
 10
210.0
 20
292.0
 30
0.0
 11
210.0
 21
287.0
 31
0.0
  0
MTEXT
  5
264
330
23E
100
AcDbEntity
  8
DIN-Vorlage
100
AcDbMText
 10
233.8206471739
 20
289.499395
 30
0.0
 40
3.5
 41
1.9697784419
 46
5.8604751163
 71
     4
 72
     1
  1
{\fSolid Edge ISO|b0||i0||c0|p34;\C7;\H3.5;\W0.9;5}
  7
SEACAD_Solid_Edge_ISO
 73
     1
 44
1.0
1001
ACAD
1000
ACAD_MTEXT_DEFINED_HEIGHT_BEGIN
1070
    46
1040
5.8604751163
1000
ACAD_MTEXT_DEFINED_HEIGHT_END
  0
LINE
  5
265
330
23E
100
AcDbEntity
  8
DIN-Vorlage
  6
Continuous
 62
     7
100
AcDbLine
 10
260.0
 20
292.0
 30
0.0
 11
260.0
 21
287.0
 31
0.0
  0
MTEXT
  5
266
330
23E
100
AcDbEntity
  8
DIN-Vorlage
100
AcDbMText
 10
283.8206471739
 20
289.499395
 30
0.0
 40
3.5
 41
2.0593133256
 46
5.8604751163
 71
     4
 72
     1
  1
{\fSolid Edge ISO|b0||i0||c0|p34;\C7;\H3.5;\W0.9;6}
  7
SEACAD_Solid_Edge_ISO
 73
     1
 44
1.0
1001
ACAD
1000
ACAD_MTEXT_DEFINED_HEIGHT_BEGIN
1070
    46
1040
5.8604751163
1000
ACAD_MTEXT_DEFINED_HEIGHT_END
  0
LINE
  5
267
330
23E
100
AcDbEntity
  8
DIN-Vorlage
  6
Continuous
 62
     7
100
AcDbLine
 10
310.0
 20
292.0
 30
0.0
 11
310.0
 21
287.0
 31
0.0
  0
MTEXT
  5
268
330
23E
100
AcDbEntity
  8
DIN-Vorlage
100
AcDbMText
 10
333.8206471739
 20
289.499395
 30
0.0
 40
3.5
 41
2.238383093
 46
5.8604751163
 71
     4
 72
     1
  1
{\fSolid Edge ISO|b0||i0||c0|p34;\C7;\H3.5;\W0.9;7}
  7
SEACAD_Solid_Edge_ISO
 73
     1
 44
1.0
1001
ACAD
1000
ACAD_MTEXT_DEFINED_HEIGHT_BEGIN
1070
    46
1040
5.8604751163
1000
ACAD_MTEXT_DEFINED_HEIGHT_END
  0
LINE
  5
269
330
23E
100
AcDbEntity
  8
DIN-Vorlage
  6
Continuous
 62
     7
100
AcDbLine
 10
360.0
 20
292.0
 30
0.0
 11
360.0
 21
287.0
 31
0.0
  0
MTEXT
  5
26A
330
23E
100
AcDbEntity
  8
DIN-Vorlage
100
AcDbMText
 10
383.8206471739
 20
289.499395
 30
0.0
 40
3.5
 41
2.238383093
 46
5.8604751163
 71
     4
 72
     1
  1
{\fSolid Edge ISO|b0||i0||c0|p34;\C7;\H3.5;\W0.9;8}
  7
SEACAD_Solid_Edge_ISO
 73
     1
 44
1.0
1001
ACAD
1000
ACAD_MTEXT_DEFINED_HEIGHT_BEGIN
1070
    46
1040
5.8604751163
1000
ACAD_MTEXT_DEFINED_HEIGHT_END
  0
LINE
  5
26B
330
23E
100
AcDbEntity
  8
DIN-Vorlage
  6
Continuous
 62
     7
100
AcDbLine
 10
20.0
 20
10.0
 30
0.0
 11
20.0
 21
287.0
 31
0.0
  0
LINE
  5
26C
330
23E
100
AcDbEntity
  8
DIN-Vorlage
  6
Continuous
 62
     7
100
AcDbLine
 10
20.0
 20
287.0
 30
0.0
 11
410.0
 21
287.0
 31
0.0
  0
LINE
  5
26D
330
23E
100
AcDbEntity
  8
DIN-Vorlage
  6
Continuous
 62
     7
100
AcDbLine
 10
410.0
 20
287.0
 30
0.0
 11
410.0
 21
10.0
 31
0.0
  0
LINE
  5
26E
330
23E
100
AcDbEntity
  8
DIN-Vorlage
  6
Continuous
 62
     7
100
AcDbLine
 10
410.0
 20
10.0
 30
0.0
 11
20.0
 21
10.0
 31
0.0
  0
ENDBLK
  5
270
330
23E
100
AcDbEntity
  8
0
100
AcDbBlockEnd
  0
BLOCK
  5
275
330
274
100
AcDbEntity
  8
0
100
AcDbBlockBegin
  2
SEANNOT_GROUP
 70
     0
 10
0.0
 20
0.0
 30
0.0
  3
SEANNOT_GROUP
  1

  0
ENDBLK
  5
276
330
274
100
AcDbEntity
  8
0
100
AcDbBlockEnd
  0
BLOCK
  5
278
330
277
100
AcDbEntity
  8
0
100
AcDbBlockBegin
  2
SEANNOT_GROUP1
 70
     0
 10
0.0
 20
0.0
 30
0.0
  3
SEANNOT_GROUP1
  1

  0
ENDBLK
  5
279
330
277
100
AcDbEntity
  8
0
100
AcDbBlockEnd
  0
BLOCK
  5
27B
330
27A
100
AcDbEntity
  8
0
100
AcDbBlockBegin
  2
SEANNOT_GROUP2
 70
     0
 10
0.0
 20
0.0
 30
0.0
  3
SEANNOT_GROUP2
  1

  0
ENDBLK
  5
27C
330
27A
100
AcDbEntity
  8
0
100
AcDbBlockEnd
  0
BLOCK
  5
27E
330
27D
100
AcDbEntity
  8
0
100
AcDbBlockBegin
  2
SEANNOT_GROUP3
 70
     0
 10
0.0
 20
0.0
 30
0.0
  3
SEANNOT_GROUP3
  1

  0
ENDBLK
  5
27F
330
27D
100
AcDbEntity
  8
0
100
AcDbBlockEnd
  0
BLOCK
  5
281
330
280
100
AcDbEntity
  8
0
100
AcDbBlockBegin
  2
SEANNOT_GROUP4
 70
     0
 10
0.0
 20
0.0
 30
0.0
  3
SEANNOT_GROUP4
  1

  0
ENDBLK
  5
282
330
280
100
AcDbEntity
  8
0
100
AcDbBlockEnd
  0
BLOCK
  5
284
330
283
100
AcDbEntity
  8
0
100
AcDbBlockBegin
  2
SEANNOT_GROUP5
 70
     0
 10
0.0
 20
0.0
 30
0.0
  3
SEANNOT_GROUP5
  1

  0
ENDBLK
  5
285
330
283
100
AcDbEntity
  8
0
100
AcDbBlockEnd
  0
BLOCK
  5
287
330
286
100
AcDbEntity
  8
0
100
AcDbBlockBegin
  2
SEANNOT_GROUP6
 70
     0
 10
0.0
 20
0.0
 30
0.0
  3
SEANNOT_GROUP6
  1

  0
ENDBLK
  5
288
330
286
100
AcDbEntity
  8
0
100
AcDbBlockEnd
  0
BLOCK
  5
28D
330
28C
100
AcDbEntity
  8
0
100
AcDbBlockBegin
  2
SEANNOT_GROUP7
 70
     0
 10
0.0
 20
0.0
 30
0.0
  3
SEANNOT_GROUP7
  1

  0
ENDBLK
  5
28E
330
28C
100
AcDbEntity
  8
0
100
AcDbBlockEnd
  0
BLOCK
  5
290
330
28F
100
AcDbEntity
  8
0
100
AcDbBlockBegin
  2
SEANNOT_GROUP8
 70
     0
 10
0.0
 20
0.0
 30
0.0
  3
SEANNOT_GROUP8
  1

  0
ENDBLK
  5
291
330
28F
100
AcDbEntity
  8
0
100
AcDbBlockEnd
  0
BLOCK
  5
295
330
294
100
AcDbEntity
  8
0
100
AcDbBlockBegin
  2
SEANNOT_GROUP9
 70
     0
 10
0.0
 20
0.0
 30
0.0
  3
SEANNOT_GROUP9
  1

  0
ENDBLK
  5
296
330
294
100
AcDbEntity
  8
0
100
AcDbBlockEnd
  0
BLOCK
  5
298
330
297
100
AcDbEntity
  8
0
100
AcDbBlockBegin
  2
SEANNOT_GROUP10
 70
     0
 10
0.0
 20
0.0
 30
0.0
  3
SEANNOT_GROUP10
  1

  0
ENDBLK
  5
299
330
297
100
AcDbEntity
  8
0
100
AcDbBlockEnd
  0
BLOCK
  5
29B
330
29A
100
AcDbEntity
  8
0
100
AcDbBlockBegin
  2
SEANNOT_GROUP11
 70
     0
 10
0.0
 20
0.0
 30
0.0
  3
SEANNOT_GROUP11
  1

  0
ENDBLK
  5
29C
330
29A
100
AcDbEntity
  8
0
100
AcDbBlockEnd
  0
BLOCK
  5
29E
330
29D
100
AcDbEntity
  8
0
100
AcDbBlockBegin
  2
SEANNOT_GROUP12
 70
     0
 10
0.0
 20
0.0
 30
0.0
  3
SEANNOT_GROUP12
  1

  0
ENDBLK
  5
29F
330
29D
100
AcDbEntity
  8
0
100
AcDbBlockEnd
  0
BLOCK
  5
2ED
330
2A0
100
AcDbEntity
  8
0
100
AcDbBlockBegin
  2
Schriftfeld
 70
     0
 10
0.0
 20
0.0
 30
0.0
  3
Schriftfeld
  1

  0
MTEXT
  5
2A1
330
2A0
100
AcDbEntity
  8
KBP_KOPF
100
AcDbMText
 10
-89.8029541092
 20
33.1574342714
 30
0.0
 40
1.8
 41
21.0619252026
 46
3.00001
 71
     7
 72
     1
  1
{\fSolid Edge ANSI|b0||i0||c0|p34;\C7;\H1.8;\W1.;Titel:}
 73
     1
 44
1.0
1001
ACAD
1000
ACAD_MTEXT_DEFINED_HEIGHT_BEGIN
1070
    46
1040
3.00001
1000
ACAD_MTEXT_DEFINED_HEIGHT_END
  0
LINE
  5
2A2
330
2A0
100
AcDbEntity
  8
Default
  6
Continuous
 62
     7
100
AcDbLine
 10
-180.0
 20
9.0
 30
0.0
 11
0.0
 21
9.0
 31
0.0
  0
MTEXT
  5
2A3
330
2A0
100
AcDbEntity
  8
KBP_KOPF
100
AcDbMText
 10
-179.4291320821
 20
6.1834321095
 30
0.0
 40
1.4
 41
24.1992198996
 46
2.3333433333
 71
     7
 72
     1
  1
{\fSolid Edge ANSI|b0||i0||c0|p34;\C7;\H1.4;\W1.;Planart:\P}
 73
     1
 44
1.0
1001
ACAD
1000
ACAD_MTEXT_DEFINED_HEIGHT_BEGIN
1070
    46
1040
2.3333433333
1000
ACAD_MTEXT_DEFINED_HEIGHT_END
  0
LINE
  5
2A4
330
2A0
100
AcDbEntity
  8
Default
  6
Continuous
 62
     7
100
AcDbLine
 10
-180.0
 20
9.0
 30
0.0
 11
-180.0
 21
36.0
 31
0.0
  0
LINE
  5
2A5
330
2A0
100
AcDbEntity
  8
Default
  6
Continuous
 62
     7
100
AcDbLine
 10
-180.0
 20
36.0
 30
0.0
 11
-90.0
 21
36.0
 31
0.0
  0
LINE
  5
2A6
330
2A0
100
AcDbEntity
  8
Default
  6
Continuous
 62
     7
100
AcDbLine
 10
-90.0
 20
36.0
 30
0.0
 11
-90.0
 21
9.0
 31
0.0
  0
LINE
  5
2A7
330
2A0
100
AcDbEntity
  8
Default
  6
Continuous
 62
     7
100
AcDbLine
 10
-90.0
 20
36.0
 30
0.0
 11
0.0
 21
36.0
 31
0.0
  0
LINE
  5
2A8
330
2A0
100
AcDbEntity
  8
Default
  6
Continuous
 62
     7
100
AcDbLine
 10
0.0
 20
36.0
 30
0.0
 11
0.0
 21
27.0
 31
0.0
  0
LINE
  5
2A9
330
2A0
100
AcDbEntity
  8
Default
  6
Continuous
 62
     7
100
AcDbLine
 10
0.0
 20
27.0
 30
0.0
 11
0.0
 21
18.0
 31
0.0
  0
LINE
  5
2AA
330
2A0
100
AcDbEntity
  8
Default
  6
Continuous
 62
     7
100
AcDbLine
 10
0.0
 20
18.0
 30
0.0
 11
0.0
 21
9.0
 31
0.0
  0
LINE
  5
2AB
330
2A0
100
AcDbEntity
  8
Default
  6
Continuous
 62
     7
100
AcDbLine
 10
0.0
 20
27.0
 30
0.0
 11
-90.0
 21
27.0
 31
0.0
  0
LINE
  5
2AC
330
2A0
100
AcDbEntity
  8
Default
  6
Continuous
 62
     7
100
AcDbLine
 10
-180.0
 20
36.0
 30
0.0
 11
-180.0
 21
63.0
 31
0.0
  0
LINE
  5
2AD
330
2A0
100
AcDbEntity
  8
Default
  6
Continuous
 62
     7
100
AcDbLine
 10
-180.0
 20
63.0
 30
0.0
 11
-90.0
 21
63.0
 31
0.0
  0
LINE
  5
2AE
330
2A0
100
AcDbEntity
  8
Default
  6
Continuous
 62
     7
100
AcDbLine
 10
-90.0
 20
63.0
 30
0.0
 11
-90.0
 21
36.0
 31
0.0
  0
LINE
  5
2AF
330
2A0
100
AcDbEntity
  8
Default
  6
Continuous
 62
     7
100
AcDbLine
 10
0.0
 20
18.0
 30
0.0
 11
-90.0
 21
18.0
 31
0.0
  0
MTEXT
  5
2B0
330
2A0
100
AcDbEntity
  8
Default
100
AcDbMText
 10
-89.0875824599
 20
62.1792424195
 30
0.0
 40
1.4
 41
13.1569675217
 46
2.1913143478
 71
     1
 72
     1
  1
{\fSolid Edge ANSI|b0||i0||c0|p34;\C7;\H1.4;\W1.;Erstellt durch:}
 73
     1
 44
1.0
1001
ACAD
1000
ACAD_MTEXT_DEFINED_HEIGHT_BEGIN
1070
    46
1040
2.1913143478
1000
ACAD_MTEXT_DEFINED_HEIGHT_END
  0
MTEXT
  5
2B1
330
2A0
100
AcDbEntity
  8
Default
100
AcDbMText
 10
-54.4826159125
 20
62.2024004983
 30
0.0
 40
1.4
 41
11.9182718696
 46
2.1913143478
 71
     1
 72
     1
  1
{\fSolid Edge ANSI|b0||i0||c0|p34;\C7;\H1.4;\W1.;Geprüft von:}
 73
     1
 44
1.0
1001
ACAD
1000
ACAD_MTEXT_DEFINED_HEIGHT_BEGIN
1070
    46
1040
2.1913143478
1000
ACAD_MTEXT_DEFINED_HEIGHT_END
  0
LINE
  5
2B2
330
2A0
100
AcDbEntity
  8
Default
  6
Continuous
 62
     7
100
AcDbLine
 10
-90.0
 20
63.0
 30
0.0
 11
0.0
 21
63.0
 31
0.0
  0
LINE
  5
2B3
330
2A0
100
AcDbEntity
  8
Default
  6
Continuous
 62
     7
100
AcDbLine
 10
0.0
 20
63.0
 30
0.0
 11
0.0
 21
36.0
 31
0.0
  0
MTEXT
  5
2B4
330
2A0
100
AcDbEntity
  8
Default
100
AcDbMText
 10
-89.4171019513
 20
53.1246643383
 30
0.0
 40
1.4
 41
22.4304457826
 46
2.1913143478
 71
     1
 72
     1
  1
{\fSolid Edge ANSI|b0||i0||c0|p34;\C7;\H1.4;\W1.;Letzte Änderung durch:}
 73
     1
 44
1.0
1001
ACAD
1000
ACAD_MTEXT_DEFINED_HEIGHT_BEGIN
1070
    46
1040
2.1913143478
1000
ACAD_MTEXT_DEFINED_HEIGHT_END
  0
MTEXT
  5
2B5
330
2A0
100
AcDbEntity
  8
Default
100
AcDbMText
 10
-54.5559961327
 20
52.8191306618
 30
0.0
 40
1.4
 41
27.8874023043
 46
2.1913143478
 71
     1
 72
     1
  1
{\fSolid Edge ANSI|b0||i0||c0|p34;\C7;\H1.4;\W1.;Letzte Änderung geprüft von:}
 73
     1
 44
1.0
1001
ACAD
1000
ACAD_MTEXT_DEFINED_HEIGHT_BEGIN
1070
    46
1040
2.1913143478
1000
ACAD_MTEXT_DEFINED_HEIGHT_END
  0
LINE
  5
2B6
330
2A0
100
AcDbEntity
  8
Default
  6
Continuous
 62
     7
100
AcDbLine
 10
0.0
 20
63.0
 30
0.0
 11
0.0
 21
54.0
 31
0.0
  0
LINE
  5
2B7
330
2A0
100
AcDbEntity
  8
Default
  6
Continuous
 62
     7
100
AcDbLine
 10
0.0
 20
54.0
 30
0.0
 11
-45.0
 21
54.0
 31
0.0
  0
LINE
  5
2B8
330
2A0
100
AcDbEntity
  8
Default
  6
Continuous
 62
     7
100
AcDbLine
 10
-45.0
 20
54.0
 30
0.0
 11
-90.0
 21
54.0
 31
0.0
  0
LINE
  5
2B9
330
2A0
100
AcDbEntity
  8
Default
  6
Continuous
 62
     7
100
AcDbLine
 10
-90.0
 20
45.0
 30
0.0
 11
0.0
 21
45.0
 31
0.0
  0
MTEXT
  5
2BA
330
2A0
100
AcDbEntity
  8
Default
100
AcDbMText
 10
-19.7026025703
 20
44.1571092439
 30
0.0
 40
1.4
 41
8.8717501304
 46
2.1913143478
 71
     1
 72
     1
  1
{\fSolid Edge ANSI|b0||i0||c0|p34;\C7;\H1.4;\W1.;Revision:}
 73
     1
 44
1.0
1001
ACAD
1000
ACAD_MTEXT_DEFINED_HEIGHT_BEGIN
1070
    46
1040
2.1913143478
1000
ACAD_MTEXT_DEFINED_HEIGHT_END
  0
LINE
  5
2BB
330
2A0
100
AcDbEntity
  8
Default
  6
Continuous
 62
     7
100
AcDbLine
 10
0.0
 20
63.0
 30
0.0
 11
0.0
 21
113.0
 31
0.0
  0
INSERT
  5
2BC
330
2A0
100
AcDbEntity
  8
Default
100
AcDbBlockReference
  2
SEANNOT_GROUP
 10
0.0
 20
0.0
 30
0.0
  0
MULTILEADER
  5
2BD
330
2A0
100
AcDbEntity
  8
Default
  6
Continuous
 62
     7
 92
      240
310
F0000000020000000C00000013000000993A0000DC000000260000004D8EDFF3AB6356C0863001B9DC294740000000000000000000000000000000000000000000000000000000000000F03F000000000000F03F000000000000000000000000000000004A0061006B006F0062002E0042006F006C006400740000000B0000
310
00010000000000000000000440000000000000F03F0000000000000000000000000000F03F00000000000000000000000000000000000000000000000000000000000000002200000053006F006C006900640020004500640067006500200041004E005300490000000000000000000000
100
AcDbMLeader
300
CONTEXT_DATA{
 40
1.0
 10
-91.4072223539
 20
47.5657873363
 30
0.0
 41
2.5
140
2.5
145
0.875
174
     1
175
     1
176
     0
177
     0
290
     1
304
{\pxsm0.9;\fSolid Edge ANSI|b0||i0||c0|p34;\W1.;Jakob.Boldt\P}
 11
0.0
 21
0.0
 31
1.0
340
11
 12
-89.4072223539
 22
48.8270484215
 32
0.0
 13
1.0
 23
0.0
 33
0.0
 42
0.0
 43
0.0
 44
0.0
 45
1.0
170
     1
 90
-1073741824
171
     1
172
     1
 91
-939524096
141
1.5
 92
        0
291
     0
292
     0
173
     0
293
     0
142
0.0
143
0.0
294
     0
295
     0
296
     0
110
0.0
120
0.0
130
0.0
111
1.0
121
0.0
131
0.0
112
0.0
122
1.0
132
0.0
297
     0
301
}
340
6C
 90
 35052448
170
     1
 91
-1056964608
341
14
171
    -2
290
     1
291
     1
 41
0.0
342
1FC
 42
4.0
172
     2
343
11
173
     1
 95
        1
174
     1
175
     0
 92
-1073741824
292
     0
 93
-1023410169
 10
1.0
 20
1.0
 30
1.0
 43
0.0
176
     0
293
     0
294
     0
178
     0
179
     1
 45
1.0
1001
ACAD_MLEADERVER
1070
     2
  0
INSERT
  5
2BE
330
2A0
100
AcDbEntity
  8
Default
100
AcDbBlockReference
  2
SEANNOT_GROUP1
 10
0.0
 20
0.0
 30
0.0
  0
MULTILEADER
  5
2BF
330
2A0
100
AcDbEntity
  8
Default
  6
Continuous
 62
     7
 92
      240
310
F0000000020000000C00000013000000993A0000DC0000002600000017D8AFD1C24F4BC03A6A99C0D28F4B40000000000000000000000000000000000000000000000000000000000000F03F000000000000F03F000000000000000000000000000000004A0061006B006F0062002E0042006F006C006400740000000B0000
310
00010000000000000000000440000000000000F03F0000000000000000000000000000F03F00000000000000000000000000000000000000000000000000000000000000002200000053006F006C006900640020004500640067006500200041004E005300490000000000000000000000
100
AcDbMLeader
300
CONTEXT_DATA{
 40
1.0
 10
-56.472985105
 20
56.3623580659
 30
0.0
 41
2.5
140
2.5
145
0.875
174
     1
175
     1
176
     0
177
     0
290
     1
304
{\pxsm0.9;\fSolid Edge ANSI|b0||i0||c0|p34;\W1.;Jakob.Boldt\P}
 11
0.0
 21
0.0
 31
1.0
340
11
 12
-54.472985105
 22
57.623619151
 32
0.0
 13
1.0
 23
0.0
 33
0.0
 42
0.0
 43
0.0
 44
0.0
 45
1.0
170
     1
 90
-1073741824
171
     1
172
     1
 91
-939524096
141
1.5
 92
        0
291
     0
292
     0
173
     0
293
     0
142
0.0
143
0.0
294
     0
295
     0
296
     0
110
0.0
120
0.0
130
0.0
111
1.0
121
0.0
131
0.0
112
0.0
122
1.0
132
0.0
297
     0
301
}
340
6C
 90
 35052448
170
     1
 91
-1056964608
341
14
171
    -2
290
     1
291
     1
 41
0.0
342
1FC
 42
4.0
172
     2
343
11
173
     1
 95
        1
174
     1
175
     0
 92
-1073741824
292
     0
 93
-1023410169
 10
1.0
 20
1.0
 30
1.0
 43
0.0
176
     0
293
     0
294
     0
178
     0
179
     1
 45
1.0
1001
ACAD_MLEADERVER
1070
     2
  0
INSERT
  5
2C0
330
2A0
100
AcDbEntity
  8
Default
100
AcDbBlockReference
  2
SEANNOT_GROUP2
 10
0.0
 20
0.0
 30
0.0
  0
MULTILEADER
  5
2C1
330
2A0
100
AcDbEntity
  8
Default
  6
Continuous
 62
     7
 92
      240
310
F0000000020000000C00000013000000993A0000DC00000026000000CF8959589F5A4BC09637A7FD3D134740000000000000000000000000000000000000000000000000000000000000F03F000000000000F03F000000000000000000000000000000004A0061006B006F0062002E0042006F006C006400740000000B0000
310
00010000000000000000000440000000000000F03F0000000000000000000000000000F03F00000000000000000000000000000000000000000000000000000000000000002200000053006F006C006900640020004500640067006500200041004E005300490000000000000000000000
100
AcDbMLeader
300
CONTEXT_DATA{
 40
1.0
 10
-56.5578400253
 20
47.389068225
 30
0.0
 41
2.5
140
2.5
145
0.875
174
     1
175
     1
176
     0
177
     0
290
     1
304
{\pxsm0.9;\fSolid Edge ANSI|b0||i0||c0|p34;\W1.;Jakob.Boldt\P}
 11
0.0
 21
0.0
 31
1.0
340
11
 12
-54.5578400253
 22
48.6503293101
 32
0.0
 13
1.0
 23
0.0
 33
0.0
 42
0.0
 43
0.0
 44
0.0
 45
1.0
170
     1
 90
-1073741824
171
     1
172
     1
 91
-939524096
141
1.5
 92
        0
291
     0
292
     0
173
     0
293
     0
142
0.0
143
0.0
294
     0
295
     0
296
     0
110
0.0
120
0.0
130
0.0
111
1.0
121
0.0
131
0.0
112
0.0
122
1.0
132
0.0
297
     0
301
}
340
6C
 90
 35052448
170
     1
 91
-1056964608
341
14
171
    -2
290
     1
291
     1
 41
0.0
342
1FC
 42
4.0
172
     2
343
11
173
     1
 95
        1
174
     1
175
     0
 92
-1073741824
292
     0
 93
-1023410169
 10
1.0
 20
1.0
 30
1.0
 43
0.0
176
     0
293
     0
294
     0
178
     0
179
     1
 45
1.0
1001
ACAD_MLEADERVER
1070
     2
  0
INSERT
  5
2C2
330
2A0
100
AcDbEntity
  8
Default
100
AcDbBlockReference
  2
SEANNOT_GROUP3
 10
0.0
 20
0.0
 30
0.0
  0
MULTILEADER
  5
2C3
330
2A0
100
AcDbEntity
  8
Default
  6
Continuous
 62
     7
 92
      260
310
04010000020000000C00000013000000993A0000F000000026000000C13412B8AE4656C0ED7D819BB4613C40000000000000000000000000000000000000000000000000000000000000F03F000000000000F03F00000000000000000000000000000000520069006E006E0065006E005F0052006F007300740065005F0044
310
00570047005F005000440046000000000014000000010000000000000000000440000000000000F03F0000000000000000000000000000F03F00000000000000000000000000000000000000000000000000000000000000002200000053006F006C006900640020004500640067006500200041004E005300490000000000
310
000000000000
100
AcDbMLeader
300
CONTEXT_DATA{
 40
1.0
 10
-90.9142267876
 20
29.6341254633
 30
0.0
 41
2.5
140
2.5
145
0.875
174
     1
175
     1
176
     0
177
     0
290
     1
304
{\pxsm0.9;\fSolid Edge ANSI|b0||i0||c0|p34;\W1.;Rinnen_Roste_DWG_PDF\P}
 11
0.0
 21
0.0
 31
1.0
340
11
 12
-88.9142267876
 22
30.8941353167
 32
0.0
 13
1.0
 23
0.0
 33
0.0
 42
0.0
 43
88.2968779953
 44
0.0
 45
1.0
170
     1
 90
-1073741824
171
     1
172
     1
 91
-939524096
141
1.5
 92
        0
291
     0
292
     0
173
     0
293
     0
142
0.0
143
0.0
294
     0
295
     0
296
     0
110
0.0
120
0.0
130
0.0
111
1.0
121
0.0
131
0.0
112
0.0
122
1.0
132
0.0
297
     0
301
}
340
6C
 90
 35052448
170
     1
 91
-1056964608
341
14
171
    -2
290
     1
291
     1
 41
0.0
342
1FC
 42
4.0
172
     2
343
11
173
     1
 95
        1
174
     1
175
     0
 92
-1073741824
292
     0
 93
-1023410169
 10
1.0
 20
1.0
 30
1.0
 43
0.0
176
     0
293
     0
294
     0
178
     0
179
     1
 45
1.0
1001
ACAD_MLEADERVER
1070
     2
  0
INSERT
  5
2C4
330
2A0
100
AcDbEntity
  8
Default
100
AcDbBlockReference
  2
SEANNOT_GROUP4
 10
0.0
 20
0.0
 30
0.0
  0
MULTILEADER
  5
2C5
330
2A0
100
AcDbEntity
  8
Default
  6
Continuous
 62
     7
 92
      264
310
08010000020000000C00000013000000993A0000F4000000260000002A9D60C7E1C160C070F96DBEFFEFF33F000000000000000000000000000000000000000000000000000000000000F03F000000000000F03F0000000000000000000000000000000020004600650068006C00650072003A0020004B00650069006E0065
310
0020005200650066006500720065006E007A00000017000000010000000000000000000440000000000000F03F0000000000000000000000000000F03F00000000000000000000000000000000000000000000000000000000000000002200000053006F006C006900640020004500640067006500200041004E0053004900
310
00000000000000000000
100
AcDbMLeader
300
CONTEXT_DATA{
 40
1.0
 10
-136.0588108909
 20
2.4935519414
 30
0.0
 41
2.5
140
2.5
145
0.875
174
     1
175
     1
176
     0
177
     0
290
     1
304
{\pxsm0.9;\fSolid Edge ANSI|b0||i0||c0|p34;\W1.; Fehler: Keine Referenz\P}
 11
0.0
 21
0.0
 31
1.0
340
11
 12
-134.0588108909
 22
3.7535617948
 32
0.0
 13
1.0
 23
0.0
 33
0.0
 42
0.0
 43
0.0
 44
0.0
 45
1.0
170
     1
 90
-1073741824
171
     1
172
     1
 91
-939524096
141
1.5
 92
        0
291
     0
292
     0
173
     0
293
     0
142
0.0
143
0.0
294
     0
295
     0
296
     0
110
0.0
120
0.0
130
0.0
111
1.0
121
0.0
131
0.0
112
0.0
122
1.0
132
0.0
297
     0
301
}
340
6C
 90
 35052448
170
     1
 91
-1056964608
341
14
171
    -2
290
     1
291
     1
 41
0.0
342
1FC
 42
4.0
172
     2
343
11
173
     1
 95
        1
174
     1
175
     0
 92
-1073741824
292
     0
 93
-1023410169
 10
1.0
 20
1.0
 30
1.0
 43
0.0
176
     0
293
     0
294
     0
178
     0
179
     1
 45
1.0
1001
ACAD_MLEADERVER
1070
     2
  0
LINE
  5
2C6
330
2A0
100
AcDbEntity
  8
Default
  6
Continuous
 62
     7
100
AcDbLine
 10
-15.0
 20
63.0
 30
0.0
 11
-19.0
 21
63.0
 31
0.0
  0
MTEXT
  5
2C7
330
2A0
100
AcDbEntity
  8
Default
100
AcDbMText
 10
-89.6243223767
 20
25.9716005033
 30
0.0
 40
1.8
 41
16.657837087
 46
2.8174013043
 71
     1
 72
     1
  1
{\fSolid Edge ANSI|b0||i0||c0|p34;\C7;\H1.8;\W1.;Bauteilstatus:}
 73
     1
 44
1.0
1001
ACAD
1000
ACAD_MTEXT_DEFINED_HEIGHT_BEGIN
1070
    46
1040
2.8174013043
1000
ACAD_MTEXT_DEFINED_HEIGHT_END
  0
INSERT
  5
2C8
330
2A0
100
AcDbEntity
  8
Default
100
AcDbBlockReference
  2
SEANNOT_GROUP5
 10
0.0
 20
0.0
 30
0.0
  0
MULTILEADER
  5
2C9
330
2A0
100
AcDbEntity
  8
Default
  6
Continuous
 62
     7
 92
      240
310
F0000000020000000C00000013000000993A0000DC0000002600000015F751745B6256C0627F0545838F4B40000000000000000000000000000000000000000000000000000000000000F03F000000000000F03F000000000000000000000000000000004A0061006B006F0062002E0042006F006C006400740000000B0000
310
00010000000000000000000440000000000000F03F0000000000000000000000000000F03F00000000000000000000000000000000000000000000000000000000000000002200000053006F006C006900640020004500640067006500200041004E005300490000000000000000000000
100
AcDbMLeader
300
CONTEXT_DATA{
 40
1.0
 10
-91.3866841304
 20
56.3599324456
 30
0.0
 41
2.5
140
2.5
145
0.875
174
     1
175
     1
176
     0
177
     0
290
     1
304
{\pxsm0.9;\fSolid Edge ANSI|b0||i0||c0|p34;\W1.;Jakob.Boldt\P}
 11
0.0
 21
0.0
 31
1.0
340
11
 12
-89.3866841304
 22
57.6211935307
 32
0.0
 13
1.0
 23
0.0
 33
0.0
 42
0.0
 43
0.0
 44
0.0
 45
1.0
170
     1
 90
-1073741824
171
     1
172
     1
 91
-939524096
141
1.5
 92
        0
291
     0
292
     0
173
     0
293
     0
142
0.0
143
0.0
294
     0
295
     0
296
     0
110
0.0
120
0.0
130
0.0
111
1.0
121
0.0
131
0.0
112
0.0
122
1.0
132
0.0
297
     0
301
}
340
6C
 90
 35052448
170
     1
 91
-1056964608
341
14
171
    -2
290
     1
291
     1
 41
0.0
342
1FC
 42
4.0
172
     2
343
11
173
     1
 95
        1
174
     1
175
     0
 92
-1073741824
292
     0
 93
-1023410169
 10
1.0
 20
1.0
 30
1.0
 43
0.0
176
     0
293
     0
294
     0
178
     0
179
     1
 45
1.0
1001
ACAD_MLEADERVER
1070
     2
  0
INSERT
  5
2CA
330
2A0
100
AcDbEntity
  8
Default
100
AcDbBlockReference
  2
SEANNOT_GROUP6
 10
0.0
 20
0.0
 30
0.0
  0
MULTILEADER
  5
2CB
330
2A0
100
AcDbEntity
  8
Default
  6
Continuous
 62
     7
 92
      224
310
E0000000020000000C00000013000000993A0000CC00000026000000A00250F3CBA833C08B8FC2CBD0954240000000000000000000000000000000000000000000000000000000000000F03F000000000000F03F000000000000000000000000000000003F002F003000000003000000010000000000000000000440000000
310
000000F03F0000000000000000000000000000F03F00000000000000000000000000000000000000000000000000000000000000002200000053006F006C006900640020004500640067006500200041004E005300490000000000000000000000
100
AcDbMLeader
300
CONTEXT_DATA{
 40
1.0
 10
-21.4941994548
 20
38.4341588938
 30
0.0
 41
2.5
140
2.5
145
0.875
174
     1
175
     1
176
     0
177
     0
290
     1
304
{\pxsm0.9;\fSolid Edge ANSI|b0||i0||c0|p34;\W1.;?/0\P}
 11
0.0
 21
0.0
 31
1.0
340
11
 12
-19.4941994548
 22
39.695419979
 32
0.0
 13
1.0
 23
0.0
 33
0.0
 42
0.0
 43
0.0
 44
0.0
 45
1.0
170
     1
 90
-1073741824
171
     1
172
     1
 91
-939524096
141
1.5
 92
        0
291
     0
292
     0
173
     0
293
     0
142
0.0
143
0.0
294
     0
295
     0
296
     0
110
0.0
120
0.0
130
0.0
111
1.0
121
0.0
131
0.0
112
0.0
122
1.0
132
0.0
297
     0
301
}
340
6C
 90
 35052449
170
     0
 91
-1056964608
341
14
171
    -2
290
     1
291
     1
 41
0.0
342
1FC
 42
4.0
172
     2
343
11
173
     1
 95
        1
174
     1
175
     0
 92
-1073741824
292
     0
 93
-1023410169
 10
1.0
 20
1.0
 30
1.0
 43
0.0
176
     0
293
     0
294
     0
178
     0
179
     1
 45
1.0
1001
ACAD_MLEADERVER
1070
     2
  0
IMAGE
  5
2CC
330
2A0
100
AcDbEntity
  8
0
 92
      140
310
8C00000001000000840000000600000005000000B5F3C7D3C65D66C0903648E1570E42400000000000000000C778A0894BC656C0903648E1570E42400000000000000000C778A0894BC656C042EE12F5DA3F4F400000000000000000B5F3C7D3C65D66C042EE12F5DA3F4F400000000000000000B5F3C7D3C65D66C0903648
310
E1570E42400000000000000000
100
AcDbRasterImage
 90
        0
 10
-178.930520907
 20
36.112056885
 30
0.0
 11
0.1238817495873623
 21
0.0
 31
0.0
 12
0.0
 22
0.1238817495873643
 32
0.0
 13
709.0
 23
213.0
340
28B
 70
     7
280
     0
281
    50
282
    50
283
     0
360
0
 71
     1
 91
        2
 14
-0.5
 24
-0.5
 14
708.5
 24
212.5
  0
MTEXT
  5
2CD
330
2A0
100
AcDbEntity
  8
Default
100
AcDbMText
 10
-19.7378813789
 20
53.0651183611
 30
0.0
 40
1.4
 41
17.1074023043
 46
2.1913143478
 71
     1
 72
     1
  1
{\fSolid Edge ANSI|b0||i0||c0|p34;\C7;\H1.4;\W1.;Änderungsdatum:}
 73
     1
 44
1.0
1001
ACAD
1000
ACAD_MTEXT_DEFINED_HEIGHT_BEGIN
1070
    46
1040
2.1913143478
1000
ACAD_MTEXT_DEFINED_HEIGHT_END
  0
INSERT
  5
2CE
330
2A0
100
AcDbEntity
  8
Default
100
AcDbBlockReference
  2
SEANNOT_GROUP7
 10
0.0
 20
0.0
 30
0.0
  0
MULTILEADER
  5
2CF
330
2A0
100
AcDbEntity
  8
Default
  6
Continuous
 62
     7
 92
      240
310
F0000000020000000C00000013000000993A0000DC00000026000000987801F6D16C33C0A9342A451A2B4740000000000000000000000000000000000000000000000000000000000000F03F000000000000F03F00000000000000000000000000000000320031002E00300034002E003200300032003100000000000A0000
310
00010000000000000000000440000000000000F03F0000000000000000000000000000F03F00000000000000000000000000000000000000000000000000000000000000002200000053006F006C006900640020004500640067006500200041004E005300490000000000000000000000
100
AcDbMLeader
300
CONTEXT_DATA{
 40
1.0
 10
-21.2198767543
 20
47.6004636496
 30
0.0
 41
2.5
140
2.5
145
0.875
174
     1
175
     1
176
     0
177
     0
290
     1
304
{\pxsm0.9;\fSolid Edge ANSI|b0||i0||c0|p34;\W1.;21.04.2021\P}
 11
0.0
 21
0.0
 31
1.0
340
11
 12
-19.2198767543
 22
48.8617247348
 32
0.0
 13
1.0
 23
0.0
 33
0.0
 42
0.0
 43
0.0
 44
0.0
 45
1.0
170
     1
 90
-1073741824
171
     1
172
     1
 91
-939524096
141
1.5
 92
        0
291
     0
292
     0
173
     0
293
     0
142
0.0
143
0.0
294
     0
295
     0
296
     0
110
0.0
120
0.0
130
0.0
111
1.0
121
0.0
131
0.0
112
0.0
122
1.0
132
0.0
297
     0
301
}
340
6C
 90
 35052448
170
     1
 91
-1056964608
341
14
171
    -2
290
     1
291
     1
 41
0.0
342
1FC
 42
4.0
172
     2
343
11
173
     1
 95
        1
174
     1
175
     0
 92
-1073741824
292
     0
 93
-1023410169
 10
1.0
 20
1.0
 30
1.0
 43
0.0
176
     0
293
     0
294
     0
178
     0
179
     1
 45
1.0
1001
ACAD_MLEADERVER
1070
     2
  0
INSERT
  5
2D0
330
2A0
100
AcDbEntity
  8
Default
100
AcDbBlockReference
  2
SEANNOT_GROUP8
 10
0.0
 20
0.0
 30
0.0
  0
MULTILEADER
  5
2D1
330
2A0
100
AcDbEntity
  8
Default
  6
Continuous
 62
     7
 92
      240
310
F0000000020000000C00000013000000993A0000DC0000002600000080CEE6EEDD6B33C0A9D03B0FC7844B40000000000000000000000000000000000000000000000000000000000000F03F000000000000F03F00000000000000000000000000000000320031002E00300034002E003200300032003100000000000A0000
310
00010000000000000000000440000000000000F03F0000000000000000000000000000F03F00000000000000000000000000000000000000000000000000000000000000002200000053006F006C006900640020004500640067006500200041004E005300490000000000000000000000
100
AcDbMLeader
300
CONTEXT_DATA{
 40
1.0
 10
-21.2161531863
 20
56.3010492615
 30
0.0
 41
2.5
140
2.5
145
0.875
174
     1
175
     1
176
     0
177
     0
290
     1
304
{\pxsm0.9;\fSolid Edge ANSI|b0||i0||c0|p34;\W1.;21.04.2021\P}
 11
0.0
 21
0.0
 31
1.0
340
11
 12
-19.2161531863
 22
57.5623103467
 32
0.0
 13
1.0
 23
0.0
 33
0.0
 42
0.0
 43
0.0
 44
0.0
 45
1.0
170
     1
 90
-1073741824
171
     1
172
     1
 91
-939524096
141
1.5
 92
        0
291
     0
292
     0
173
     0
293
     0
142
0.0
143
0.0
294
     0
295
     0
296
     0
110
0.0
120
0.0
130
0.0
111
1.0
121
0.0
131
0.0
112
0.0
122
1.0
132
0.0
297
     0
301
}
340
6C
 90
 35052448
170
     1
 91
-1056964608
341
14
171
    -2
290
     1
291
     1
 41
0.0
342
1FC
 42
4.0
172
     2
343
11
173
     1
 95
        1
174
     1
175
     0
 92
-1073741824
292
     0
 93
-1023410169
 10
1.0
 20
1.0
 30
1.0
 43
0.0
176
     0
293
     0
294
     0
178
     0
179
     1
 45
1.0
1001
ACAD_MLEADERVER
1070
     2
  0
MTEXT
  5
2D2
330
2A0
100
AcDbEntity
  8
Default
100
AcDbMText
 10
-19.8902515722
 20
62.123623256
 30
0.0
 40
1.4
 41
20.7565327391
 46
2.1913143478
 71
     1
 72
     1
  1
{\fSolid Edge ANSI|b0||i0||c0|p34;\C7;\H1.4;\W1.;Datum Ersterstellung:}
 73
     1
 44
1.0
1001
ACAD
1000
ACAD_MTEXT_DEFINED_HEIGHT_BEGIN
1070
    46
1040
2.1913143478
1000
ACAD_MTEXT_DEFINED_HEIGHT_END
  0
MTEXT
  5
2D3
330
2A0
100
AcDbEntity
  8
KBP_LOGO
100
AcDbMText
 10
-178.7448406009
 20
28.8209626257
 30
0.0
 40
4.0
 41
87.2705309173
 46
7.4646884058
 71
     7
 72
     1
  1
{\fSolid Edge ANSI|b1||i0||c0|p34;\C7;\H4.;\W1.;Richard Brink GmbH & Co. KG}
 73
     1
 44
1.0
1001
ACAD
1000
ACAD_MTEXT_DEFINED_HEIGHT_BEGIN
1070
    46
1040
7.4646884058
1000
ACAD_MTEXT_DEFINED_HEIGHT_END
  0
MTEXT
  5
2D4
330
2A0
100
AcDbEntity
  8
KBP-Kopf
100
AcDbMText
 10
-179.0879331956
 20
22.31808727
 30
0.0
 40
2.0
 41
45.9416227908
 46
15.652173913
 71
     1
 72
     1
  3
{\fSolid Edge ANSI|b1||i0||c0|p34;\C7;\H2.;\W1.;Görlitzer Straße 1\P}{\fSolid Edge ANSI|b1||i0||c0|p34;\C7;\H2.;\W1.;D-33758 Schloß Holte-Stukenbrock\P}{\fSolid Edge ANSI|b1||i0||c0|p34;\C7;\H2.;\W1.;\P}{\fSolid Edge ANSI|b1||i0||c0|p34;\C7;\H2.;\W1.
  1
;web Site: www.richard-brink.de}
 73
     1
 44
1.0
1001
ACAD
1000
ACAD_MTEXT_DEFINED_HEIGHT_BEGIN
1070
    46
1040
15.652173913
1000
ACAD_MTEXT_DEFINED_HEIGHT_END
  0
MTEXT
  5
2D5
330
2A0
100
AcDbEntity
  8
KBP-Kopf
100
AcDbMText
 10
-130.8509582725
 20
22.31808727
 30
0.0
 40
2.0
 41
40.8772405593
 46
13.3333333333
 71
     1
 72
     1
  3
{\fSolid Edge ANSI|b1||i0||c0|p34;\C7;\H2.;\W1.;Tel. +49 5207 9504  0\P}{\fSolid Edge ANSI|b1||i0||c0|p34;\C7;\H2.;\W1.;Fax +49 5207 9504 20\P}{\fSolid Edge ANSI|b1||i0||c0|p34;\C7;\H2.;\W1.;\P}{\fSolid Edge ANSI|b1||i0||c0|p34;\C7;\H2.;\W1.;e-mail: 
  1
Info@richard-brink.de}
 73
     1
 44
1.0
1001
ACAD
1000
ACAD_MTEXT_DEFINED_HEIGHT_BEGIN
1070
    46
1040
13.3333333333
1000
ACAD_MTEXT_DEFINED_HEIGHT_END
  0
LINE
  5
2D6
330
2A0
100
AcDbEntity
  8
Default
  6
Continuous
 62
     7
100
AcDbLine
 10
-180.0
 20
9.0
 30
0.0
 11
-180.0
 21
0.0
 31
0.0
  0
LINE
  5
2D7
330
2A0
100
AcDbEntity
  8
Default
  6
Continuous
 62
     7
100
AcDbLine
 10
-180.0
 20
0.0
 30
0.0
 11
0.0
 21
0.0
 31
0.0
  0
LINE
  5
2D8
330
2A0
100
AcDbEntity
  8
Default
  6
Continuous
 62
     7
100
AcDbLine
 10
0.0
 20
0.0
 30
0.0
 11
0.0
 21
9.0
 31
0.0
  0
INSERT
  5
2D9
330
2A0
100
AcDbEntity
  8
Default
100
AcDbBlockReference
  2
SEANNOT_GROUP9
 10
0.0
 20
0.0
 30
0.0
  0
MULTILEADER
  5
2DA
330
2A0
100
AcDbEntity
  8
Default
  6
Continuous
 62
     7
 92
      256
310
00010000020000000C00000013000000993A0000EC0000002600000056323A382F6666C040BB4E7D098CF53F000000000000000000000000000000000000000000000000000000000000F03F000000000000F03F00000000000000000000000000000000450069006E007A0065006C007400650069006C007A006500690063
310
0068006E0075006E006700000013000000010000000000000000000440000000000000F03F0000000000000000000000000000F03F00000000000000000000000000000000000000000000000000000000000000002200000053006F006C006900640020004500640067006500200041004E00530049000000000000000000
310
0000
100
AcDbMLeader
300
CONTEXT_DATA{
 40
1.0
 10
-181.0080818272
 20
2.2188167697
 30
0.0
 41
2.5
140
2.5
145
0.875
174
     1
175
     1
176
     0
177
     0
290
     1
304
{\pxsm0.9;\fSolid Edge ANSI|b0||i0||c0|p34;\W1.;Einzelteilzeichnung\P}
 11
0.0
 21
0.0
 31
1.0
340
11
 12
-179.0080818272
 22
3.8466887374
 32
0.0
 13
1.0
 23
0.0
 33
0.0
 42
0.0
 43
0.0
 44
0.0
 45
1.0
170
     1
 90
-1073741824
171
     1
172
     1
 91
-939524096
141
1.5
 92
        0
291
     0
292
     0
173
     0
293
     0
142
0.0
143
0.0
294
     0
295
     0
296
     0
110
0.0
120
0.0
130
0.0
111
1.0
121
0.0
131
0.0
112
0.0
122
1.0
132
0.0
297
     0
301
}
340
6C
 90
 35052448
170
     1
 91
-1056964608
341
14
171
    -2
290
     1
291
     1
 41
0.0
342
1FC
 42
4.0
172
     2
343
11
173
     1
 95
        1
174
     1
175
     0
 92
-1073741824
292
     0
 93
-1023410169
 10
1.0
 20
1.0
 30
1.0
 43
0.0
176
     0
293
     0
294
     0
178
     0
179
     1
 45
1.0
1001
ACAD_MLEADERVER
1070
     2
  0
LINE
  5
2DB
330
2A0
100
AcDbEntity
  8
Default
  6
Continuous
 62
     7
100
AcDbLine
 10
-90.0
 20
9.0
 30
0.0
 11
-90.0
 21
0.0
 31
0.0
  0
LINE
  5
2DC
330
2A0
100
AcDbEntity
  8
Default
  6
Continuous
 62
     7
100
AcDbLine
 10
-135.0144406782
 20
9.0
 30
0.0
 11
-135.0144406782
 21
0.0
 31
0.0
  0
MTEXT
  5
2DD
330
2A0
100
AcDbEntity
  8
Default
100
AcDbMText
 10
-14.1443418914
 20
8.1529295179
 30
0.0
 40
1.4
 41
4.9213153478
 46
2.1913143478
 71
     1
 72
     1
  1
{\fSolid Edge ANSI|b0||i0||c0|p34;\C7;\H1.4;\W1.;Blatt:}
 73
     1
 44
1.0
1001
ACAD
1000
ACAD_MTEXT_DEFINED_HEIGHT_BEGIN
1070
    46
1040
2.1913143478
1000
ACAD_MTEXT_DEFINED_HEIGHT_END
  0
INSERT
  5
2DE
330
2A0
100
AcDbEntity
  8
Default
100
AcDbBlockReference
  2
SEANNOT_GROUP10
 10
0.0
 20
0.0
 30
0.0
  0
MULTILEADER
  5
2DF
330
2A0
100
AcDbEntity
  8
Default
  6
Continuous
 62
     7
 92
      232
310
E8000000020000000C00000013000000993A0000D400000026000000F0127D6312332AC010130E8D1AFAFD3F000000000000000000000000000000000000000000000000000000000000F03F000000000000F03F000000000000000000000000000000003200370020002F0020003200370000000700000001000000000000
310
0000000440000000000000F03F0000000000000000000000000000F03F00000000000000000000000000000000000000000000000000000000000000002200000053006F006C006900640020004500640067006500200041004E005300490000000000000000000000
100
AcDbMLeader
300
CONTEXT_DATA{
 40
1.0
 10
-14.8945476734
 20
3.132279998
 30
0.0
 41
2.5
140
2.5
145
0.875
174
     1
175
     1
176
     0
177
     0
290
     1
304
{\pxsm0.9;\fSolid Edge ANSI|b0||i0||c0|p34;\W1.;27 / 27\P}
 11
0.0
 21
0.0
 31
1.0
340
11
 12
-12.8945476734
 22
4.3860336931
 32
0.0
 13
1.0
 23
0.0
 33
0.0
 42
0.0
 43
0.0
 44
0.0
 45
1.0
170
     1
 90
-1073741824
171
     1
172
     1
 91
-939524096
141
1.5
 92
        0
291
     0
292
     0
173
     0
293
     0
142
0.0
143
0.0
294
     0
295
     0
296
     0
110
0.0
120
0.0
130
0.0
111
1.0
121
0.0
131
0.0
112
0.0
122
1.0
132
0.0
297
     0
301
}
340
6C
 90
 35052448
170
     1
 91
-1056964608
341
14
171
    -2
290
     1
291
     1
 41
0.0
342
1FC
 42
4.0
172
     2
343
11
173
     1
 95
        1
174
     1
175
     0
 92
-1073741824
292
     0
 93
-1023410169
 10
1.0
 20
1.0
 30
1.0
 43
0.0
176
     0
293
     0
294
     0
178
     0
179
     1
 45
1.0
1001
ACAD_MLEADERVER
1070
     2
  0
MTEXT
  5
2E0
330
2A0
100
AcDbEntity
  8
Default
100
AcDbMText
 10
-89.6612627306
 20
43.8808428246
 30
0.0
 40
1.8
 41
18.7669675217
 46
2.8174013043
 71
     1
 72
     1
  1
{\fSolid Edge ANSI|b0||i0||c0|p34;\C7;\H1.8;\W1.;Artikelnummer:}
 73
     1
 44
1.0
1001
ACAD
1000
ACAD_MTEXT_DEFINED_HEIGHT_BEGIN
1070
    46
1040
2.8174013043
1000
ACAD_MTEXT_DEFINED_HEIGHT_END
  0
INSERT
  5
2E1
330
2A0
100
AcDbEntity
  8
Default
100
AcDbBlockReference
  2
SEANNOT_GROUP11
 10
0.0
 20
0.0
 30
0.0
  0
MULTILEADER
  5
2E2
330
2A0
100
AcDbEntity
  8
Default
  6
Continuous
 62
     7
 92
      264
310
08010000020000000C00000013000000993A0000F4000000260000007C25B79C414956C0EFD8D7679F4A3340000000000000000000000000000000000000000000000000000000000000F03F000000000000F03F0000000000000000000000000000000020004600650068006C00650072003A0020004B00650069006E0065
310
0020005200650066006500720065006E007A00000017000000010000000000000000000440000000000000F03F0000000000000000000000000000F03F00000000000000000000000000000000000000000000000000000000000000002200000053006F006C006900640020004500640067006500200041004E0053004900
310
00000000000000000000
100
AcDbMLeader
300
CONTEXT_DATA{
 40
1.0
 10
-91.144629649
 20
20.5389532726
 30
0.0
 41
2.5
140
2.5
145
0.875
174
     1
175
     1
176
     0
177
     0
290
     1
304
{\pxsm0.9;\fSolid Edge ANSI|b0||i0||c0|p34;\W1.; Fehler: Keine Referenz\P}
 11
0.0
 21
0.0
 31
1.0
340
11
 12
-89.144629649
 22
21.7989631261
 32
0.0
 13
1.0
 23
0.0
 33
0.0
 42
0.0
 43
0.0
 44
0.0
 45
1.0
170
     1
 90
-1073741824
171
     1
172
     1
 91
-939524096
141
1.5
 92
        0
291
     0
292
     0
173
     0
293
     0
142
0.0
143
0.0
294
     0
295
     0
296
     0
110
0.0
120
0.0
130
0.0
111
1.0
121
0.0
131
0.0
112
0.0
122
1.0
132
0.0
297
     0
301
}
340
6C
 90
 35052448
170
     1
 91
-1056964608
341
14
171
    -2
290
     1
291
     1
 41
0.0
342
1FC
 42
4.0
172
     2
343
11
173
     1
 95
        1
174
     1
175
     0
 92
-1073741824
292
     0
 93
-1023410169
 10
1.0
 20
1.0
 30
1.0
 43
0.0
176
     0
293
     0
294
     0
178
     0
179
     1
 45
1.0
1001
ACAD_MLEADERVER
1070
     2
  0
MTEXT
  5
2E3
330
2A0
100
AcDbEntity
  8
Default
100
AcDbMText
 10
-89.1277368382
 20
7.7769342522
 30
0.0
 40
1.8
 41
19.6708805652
 46
2.8174013043
 71
     1
 72
     1
  1
{\fSolid Edge ANSI|b0||i0||c0|p34;\C7;\H1.8;\W1.;Adressnummer:}
 73
     1
 44
1.0
1001
ACAD
1000
ACAD_MTEXT_DEFINED_HEIGHT_BEGIN
1070
    46
1040
2.8174013043
1000
ACAD_MTEXT_DEFINED_HEIGHT_END
  0
MTEXT
  5
2E4
330
2A0
100
AcDbEntity
  8
KBP_KOPF
100
AcDbMText
 10
-89.6219430554
 20
14.9259884213
 30
0.0
 40
1.8
 41
13.2681424649
 46
3.00001
 71
     7
 72
     1
  1
{\fSolid Edge ANSI|b0||i0||c0|p34;\C7;\H1.8;\W1.;Kunde:}
 73
     1
 44
1.0
1001
ACAD
1000
ACAD_MTEXT_DEFINED_HEIGHT_BEGIN
1070
    46
1040
3.00001
1000
ACAD_MTEXT_DEFINED_HEIGHT_END
  0
LINE
  5
2E5
330
2A0
100
AcDbEntity
  8
Default
  6
Continuous
 62
     7
100
AcDbLine
 10
-20.3209090385
 20
54.0
 30
0.0
 11
-20.3209090385
 21
63.0
 31
0.0
  0
LINE
  5
2E6
330
2A0
100
AcDbEntity
  8
Default
  6
Continuous
 62
     7
100
AcDbLine
 10
-15.0
 20
9.0
 30
0.0
 11
-15.0
 21
0.0
 31
0.0
  0
LINE
  5
2E7
330
2A0
100
AcDbEntity
  8
Default
  6
Continuous
 62
     7
100
AcDbLine
 10
-54.9751661487
 20
45.0
 30
0.0
 11
-54.9751661487
 21
63.0
 31
0.0
  0
LINE
  5
2E8
330
2A0
100
AcDbEntity
  8
Default
  6
Continuous
 62
     7
100
AcDbLine
 10
-20.3209090385
 20
54.0
 30
0.0
 11
-20.3209090385
 21
45.0
 31
0.0
  0
LINE
  5
2E9
330
2A0
100
AcDbEntity
  8
Default
  6
Continuous
 62
     7
100
AcDbLine
 10
-20.3209090385
 20
45.0
 30
0.0
 11
-20.3209090385
 21
36.0
 31
0.0
  0
MTEXT
  5
2EA
330
2A0
100
AcDbEntity
  8
KBP_KOPF
100
AcDbMText
 10
-134.4702739256
 20
6.4131752344
 30
0.0
 40
1.4
 41
24.3510527131
 46
2.3333333333
 71
     7
 72
     1
  1
{\fSolid Edge ANSI|b0||i0||c0|p34;\C7;\H1.4;\W1.;Bauteilart:}
 73
     1
 44
1.0
1001
ACAD
1000
ACAD_MTEXT_DEFINED_HEIGHT_BEGIN
1070
    46
1040
2.3333333333
1000
ACAD_MTEXT_DEFINED_HEIGHT_END
  0
INSERT
  5
2EB
330
2A0
100
AcDbEntity
  8
Default
100
AcDbBlockReference
  2
SEANNOT_GROUP12
 10
0.0
 20
0.0
 30
0.0
  0
MULTILEADER
  5
2EC
330
2A0
100
AcDbEntity
  8
Default
  6
Continuous
 62
     7
 92
      244
310
F4000000020000000C00000013000000993A0000E000000026000000DA751335CD0A37C047AC738AB55E02C0000000000000000000000000000000000000000000000000000000000000F03F000000000000F03F00000000000000000000000000000000500044004D005F0030003200330031003200370020002F00000000
310
000C00000001000000666666666666F63F000000000000F03F0000000000000000000000000000F03F00000000000000000000000000000000000000000000000000000000000000002200000053006F006C006900640020004500640067006500200041004E005300490000000000000000000000
100
AcDbMLeader
300
CONTEXT_DATA{
 40
1.0
 10
-24.9356888746
 20
-1.5885590085
 30
0.0
 41
1.4
140
1.4
145
0.49
174
     1
175
     1
176
     0
177
     0
290
     1
304
{\pxsm0.9;\fSolid Edge ANSI|b0||i0||c0|p34;\W1.;PDM_023127 / \P}
 11
0.0
 21
0.0
 31
1.0
340
11
 12
-22.9356888746
 22
-0.8822528009
 32
0.0
 13
1.0
 23
0.0
 33
0.0
 42
0.0
 43
0.0
 44
0.0
 45
1.0
170
     1
 90
-1073741824
171
     1
172
     1
 91
-939524096
141
1.5
 92
        0
291
     0
292
     0
173
     0
293
     0
142
0.0
143
0.0
294
     0
295
     0
296
     0
110
0.0
120
0.0
130
0.0
111
1.0
121
0.0
131
0.0
112
0.0
122
1.0
132
0.0
297
     0
301
}
340
6C
 90
 35052449
170
     0
 91
-1056964608
341
14
171
    -2
290
     1
291
     1
 41
0.0
342
1FC
 42
4.0
172
     2
343
11
173
     1
 95
        1
174
     1
175
     0
 92
-1073741824
292
     0
 93
-1023410169
 10
1.0
 20
1.0
 30
1.0
 43
0.0
176
     0
293
     0
294
     0
178
     0
179
     1
 45
1.0
1001
ACAD_MLEADERVER
1070
     2
  0
ENDBLK
  5
2EE
330
2A0
100
AcDbEntity
  8
0
100
AcDbBlockEnd
  0
BLOCK
  5
2F2
330
2F0
100
AcDbEntity
  8
0
100
AcDbBlockBegin
  2
Dokument_schriftlich
 70
     0
 10
0.0
 20
0.0
 30
0.0
  3
Dokument_schriftlich
  1

  0
MTEXT
  5
2F1
330
2F0
100
AcDbEntity
  8
Default
100
AcDbMText
 10
0.9505955313
 20
-0.2533926948
 30
0.0
 40
1.8
 41
290.5434892609
 46
2.8174013043
 71
     1
 72
     1
  3
{\fSolid Edge ANSI|b0||i0||c0|p34;\C7;\H1.8;\W1.;Dieses Dokument darf ohne unsere schriftl. Genehmigung weder vervielfältigt, noch dritten Personen zu irgendwelchen Zwecken zugänglich gemacht, noch zu anderen Zwecken benutzt werden, als wie es dem Em
  1
pfänger anvertraut ist !}
 11
6.123233995736766E-17
 21
1.0
 31
0.0
 73
     1
 44
1.0
1001
ACAD
1000
ACAD_MTEXT_DEFINED_HEIGHT_BEGIN
1070
    46
1040
2.8174013043
1000
ACAD_MTEXT_DEFINED_HEIGHT_END
  0
ENDBLK
  5
2F3
330
2F0
100
AcDbEntity
  8
0
100
AcDbBlockEnd
  0
ENDSEC
  0
SECTION
  2
ENTITIES
  0
MTEXT
  5
6F
330
1F
100
AcDbEntity
  8
Standard
100
AcDbMText
 10
202.2552299826
 20
243.2862360858
 30
0.0
 40
5.25
 41
77.460337087
 46
16.4347926087
 71
     5
 72
     1
  1
{\fSolid Edge ANSI|b0||i0||c0|p34;\C7;\H5.25;\W1.;Parkdeckrinne Parco \P}{\fSolid Edge ANSI|b0||i0||c0|p34;\C7;\H5.25;\W1.;PDR AF 101-50}
 73
     1
 44
1.0
1001
ACAD
1000
ACAD_MTEXT_DEFINED_HEIGHT_BEGIN
1070
    46
1040
16.4347926087
1000
ACAD_MTEXT_DEFINED_HEIGHT_END
  0
MTEXT
  5
70
330
1F
100
AcDbEntity
  8
Standard
100
AcDbMText
 10
199.6524423682
 20
227.2980925498
 30
0.0
 40
5.25
 41
137.0934892609
 46
8.2174013043
 71
     5
 72
     1
  1
{\fSolid Edge ANSI|b0||i0||c0|p34;\C7;\H5.25;\W1.;Artikel Nr.: Fa. Richard Brink A613083}
 73
     1
 44
1.0
1001
ACAD
1000
ACAD_MTEXT_DEFINED_HEIGHT_BEGIN
1070
    46
1040
8.2174013043
1000
ACAD_MTEXT_DEFINED_HEIGHT_END
  0
INSERT
  5
72
330
1F
100
AcDbEntity
  8
Standard
100
AcDbBlockReference
  2
SE
 10
0.0
 20
0.0
 30
0.0
  0
DIMENSION
  5
208
330
1F
100
AcDbEntity
  8
Standard
  6
Continuous
 62
     7
100
AcDbDimension
  2
DMBLK68
 10
151.4819682611
 20
186.1874015223
 30
0.0
 11
202.4819673075
 21
186.1874015223
 31
0.0
 70
   161
  1
\A1;101 {}
 71
     5
 42
-1.0
 73
     0
 74
     0
 75
     0
  3
DIN
100
AcDbAlignedDimension
 13
151.4819682611
 23
173.9570564743
 33
0.0
 14
253.4819682611
 24
173.9570564743
 34
0.0
  0
DIMENSION
  5
212
330
1F
100
AcDbEntity
  8
Standard
  6
Continuous
 62
     7
100
AcDbDimension
  2
DMBLK69
 10
106.4819682611
 20
199.21234737
 30
0.0
 11
202.4819674267
 21
199.21234737
 31
0.0
 70
   160
  1
\A1;<>
 71
     5
 42
-1.0
 73
     0
 74
     0
 75
     0
  3
DIN
100
AcDbAlignedDimension
 13
298.4819682611
 23
161.9570564743
 33
0.0
 14
106.4819682611
 24
161.9570564743
 34
0.0
100
AcDbRotatedDimension
  0
DIMENSION
  5
21C
330
1F
100
AcDbEntity
  8
Standard
  6
Continuous
 62
     7
100
AcDbDimension
  2
DMBLK70
 10
313.8058334885
 20
115.9570564743
 30
0.0
 11
313.8058334885
 21
141.9570570108
 31
0.0
 70
   161
  1
\A1;50 {}
 71
     5
 42
-1.0
 73
     0
 74
     0
 75
     0
  3
DIN
100
AcDbAlignedDimension
 13
298.4819682611
 23
115.9570564743
 33
0.0
 14
298.4819682611
 24
167.9570564743
 34
0.0
  0
DIMENSION
  5
226
330
1F
100
AcDbEntity
  8
Standard
  6
Continuous
 62
     7
100
AcDbDimension
  2
DMBLK71
 10
327.8058329893
 20
167.9570564743
 30
0.0
 11
327.8058329893
 21
140.4570566233
 31
0.0
 70
   161
  1
\A1;min. <>
 71
     5
 42
-1.0
 73
     0
 74
     0
 75
     0
  3
DIN
100
AcDbAlignedDimension
 13
298.4819682611
 23
167.9570564743
 33
0.0
 14
298.4819682611
 24
112.9570564743
 34
0.0
  0
DIMENSION
  5
231
330
1F
100
AcDbEntity
  8
Standard
  6
Continuous
 62
     7
100
AcDbDimension
  2
DMBLK72
 10
85.9811593069
 20
82.9570564743
 30
0.0
 11
85.9811593069
 21
125.4570560273
 31
0.0
 70
   160
  1
\A1;max. <>
 71
     5
 42
-1.0
 73
     0
 74
     0
 75
     0
  3
DIN
100
AcDbAlignedDimension
 13
106.4819682611
 23
167.9570564743
 33
0.0
 14
108.4819682611
 24
82.9570564743
 34
0.0
 50
90.0
100
AcDbRotatedDimension
  0
INSERT
  5
271
330
1F
100
AcDbEntity
  8
Standard
 62
     7
100
AcDbBlockReference
  2
Rahmen_A3-quer
 10
0.000092818
 20
0.0000948731
 30
0.0
  0
INSERT
  5
2EF
330
1F
100
AcDbEntity
  8
Standard
 62
     7
100
AcDbBlockReference
  2
Schriftfeld
 10
410.000092818
 20
10.0000948731
 30
0.0
  0
INSERT
  5
2F4
330
1F
100
AcDbEntity
  8
Standard
 62
     7
100
AcDbBlockReference
  2
Dokument_schriftlich
 10
410.000092818
 20
10.0000948731
 30
0.0
  0
ENDSEC
  0
SECTION
  2
OBJECTS
  0
DICTIONARY
  5
C
330
0
100
AcDbDictionary
281
     1
  3
ACAD_DETAILVIEWSTYLE
350
330
  3
ACAD_GROUP
350
D
  3
ACAD_IMAGE_DICT
350
28A
  3
ACAD_IMAGE_VARS
350
289
  3
ACAD_LAYOUT
350
1A
  3
ACAD_MATERIAL
350
43
  3
ACAD_MLEADERSTYLE
350
6B
  3
ACAD_MLINESTYLE
350
17
  3
ACAD_PLOTSETTINGS
350
19
  3
ACAD_PLOTSTYLENAME
350
E
  3
ACAD_SCALELIST
350
47
  3
ACAD_SECTIONVIEWSTYLE
350
331
  3
ACAD_TABLESTYLE
350
69
  3
ACAD_VISUALSTYLE
350
2A
  3
ACDB_RECOMPOSE_DATA
350
32D
  3
AcDbVariableDictionary
350
2F6
  0
SUN
  5
6D
330
29
100
AcDbSun
 90
        1
290
     0
 63
     7
421
 16777215
 40
1.0
291
     1
 91
  2455826
 92
 54000000
292
     0
 70
     2
 71
   256
280
     1
  0
DICTIONARY
  5
330
102
{ACAD_REACTORS
330
C
102
}
330
C
100
AcDbDictionary
281
     1
  0
DICTIONARY
  5
D
102
{ACAD_REACTORS
330
C
102
}
330
C
100
AcDbDictionary
281
     1
  0
DICTIONARY
  5
28A
102
{ACAD_REACTORS
330
C
102
}
330
C
100
AcDbDictionary
281
     1
  3
A613083_BRINK_Logo_1.jpg
350
28B
  0
RASTERVARIABLES
  5
289
102
{ACAD_REACTORS
330
C
102
}
330
C
100
AcDbRasterVariables
 90
        0
 70
     1
 71
     1
 72
     1
  0
DICTIONARY
  5
1A
102
{ACAD_REACTORS
330
C
102
}
330
C
100
AcDbDictionary
281
     1
  3
Layout1
350
1E
  3
Model
350
22
  0
DICTIONARY
  5
43
102
{ACAD_REACTORS
330
C
102
}
330
C
100
AcDbDictionary
281
     1
  3
ByBlock
350
45
  3
ByLayer
350
44
  3
Global
350
46
  0
DICTIONARY
  5
6B
102
{ACAD_REACTORS
330
C
102
}
330
C
100
AcDbDictionary
281
     1
  3
Standard
350
6C
  0
DICTIONARY
  5
17
102
{ACAD_REACTORS
330
C
102
}
330
C
100
AcDbDictionary
281
     1
  3
Standard
350
18
  0
DICTIONARY
  5
19
102
{ACAD_REACTORS
330
C
102
}
330
C
100
AcDbDictionary
281
     1
  0
ACDBDICTIONARYWDFLT
  5
E
102
{ACAD_REACTORS
330
C
102
}
330
C
100
AcDbDictionary
281
     1
  3
Normal
350
F
100
AcDbDictionaryWithDefault
340
F
  0
DICTIONARY
  5
47
102
{ACAD_REACTORS
330
C
102
}
330
C
100
AcDbDictionary
281
     1
  3
A0
350
48
  3
A1
350
49
  3
A2
350
4A
  3
A3
350
4B
  3
A4
350
4C
  3
A5
350
4D
  3
A6
350
4E
  3
A7
350
4F
  3
A8
350
50
  3
A9
350
51
  3
B0
350
52
  3
B1
350
53
  3
B2
350
54
  3
B3
350
55
  3
B4
350
56
  3
B5
350
57
  3
B6
350
58
  3
B7
350
59
  3
B8
350
5A
  3
B9
350
5B
  3
C0
350
5C
  3
C1
350
5D
  3
C2
350
5E
  3
C3
350
5F
  3
C4
350
60
  3
C5
350
61
  3
C6
350
62
  3
C7
350
63
  3
C8
350
64
  3
C9
350
65
  3
D0
350
66
  3
D1
350
67
  3
D2
350
68
  0
DICTIONARY
  5
331
102
{ACAD_REACTORS
330
C
102
}
330
C
100
AcDbDictionary
281
     1
  0
DICTIONARY
  5
69
102
{ACAD_REACTORS
330
C
102
}
330
C
100
AcDbDictionary
281
     1
  3
Standard
350
6A
  0
DICTIONARY
  5
2A
102
{ACAD_REACTORS
330
C
102
}
330
C
100
AcDbDictionary
281
     1
  3
2dWireframe
350
2F
  3
Basic
350
32
  3
Brighten
350
36
  3
ColorChange
350
3A
  3
Conceptual
350
34
  3
Dim
350
35
  3
EdgeColorOff
350
3D
  3
Facepattern
350
39
  3
Flat
350
2B
  3
FlatWithEdges
350
2C
  3
Gouraud
350
2D
  3
GouraudWithEdges
350
2E
  3
Hidden
350
31
  3
JitterOff
350
3B
  3
Linepattern
350
38
  3
OverhangOff
350
3C
  3
Realistic
350
33
  3
Shaded
350
42
  3
Shaded with edges
350
41
  3
Shades of Gray
350
3E
  3
Sketchy
350
3F
  3
Thicken
350
37
  3
Wireframe
350
30
  3
X-Ray
350
40
  0
XRECORD
  5
32D
102
{ACAD_REACTORS
330
C
102
}
330
C
100
AcDbXrecord
280
     1
 90
        1
330
6A
  0
DICTIONARY
  5
2F6
102
{ACAD_REACTORS
330
C
102
}
330
C
100
AcDbDictionary
281
     1
  3
CANNOSCALE
350
2F7
  3
CENTEREXE
350
332
  3
CENTERLTYPEFILE
350
333
  3
CMLEADERSTYLE
350
32F
  3
CTABLESTYLE
350
32E
  3
XCLIPFRAME
350
2F8
  0
IMAGEDEF
  5
28B
102
{ACAD_REACTORS
330
28A
102
}
330
28A
100
AcDbRasterImageDef
 90
        0
  1
A613083_BRINK_Logo_1.jpg
 10
709.0
 20
213.0
 11
0.001410437235543018
 21
0.001410437235543018
280
     1
281
     5
  0
LAYOUT
  5
1E
102
{ACAD_REACTORS
330
1A
102
}
330
1A
100
AcDbPlotSettings
  1

  2
none_device
  4

  6

 40
0.0
 41
0.0
 42
0.0
 43
0.0
 44
0.0
 45
0.0
 46
0.0
 47
0.0
 48
0.0
 49
0.0
140
0.0
141
0.0
142
1.0
143
1.0
 70
   688
 72
     1
 73
     0
 74
     5
  7

 75
    16
 76
     0
 77
     2
 78
   300
147
1.0
148
0.0
149
0.0
100
AcDbLayout
  1
Layout1
 70
     1
 71
     1
 10
0.0
 20
0.0
 11
420.0
 21
297.0
 12
0.0
 22
0.0
 32
0.0
 14
0.0
 24
0.0
 34
0.0
 15
420.0
 25
297.0
 35
0.0
146
0.0
 13
0.0
 23
0.0
 33
0.0
 16
1.0
 26
0.0
 36
0.0
 17
0.0
 27
1.0
 37
0.0
 76
     0
330
1B
  0
LAYOUT
  5
22
102
{ACAD_REACTORS
330
1A
102
}
330
1A
100
AcDbPlotSettings
  1

  2
none_device
  4
Letter_(8.50_x_11.00_Inches)
  6

 40
6.35
 41
6.35
 42
6.35000508
 43
6.35000508
 44
215.9
 45
279.4
 46
0.0
 47
0.0
 48
0.0
 49
0.0
140
0.0
141
0.0
142
1.0
143
1.0
 70
  1712
 72
     1
 73
     0
 74
     0
  7

 75
     0
 76
     0
 77
     2
 78
   300
147
1.0
148
0.0
149
0.0
100
AcDbLayout
  1
Model
 70
     1
 71
     0
 10
0.0
 20
0.0
 11
420.0
 21
297.0
 12
0.0
 22
0.0
 32
0.0
 14
0.0
 24
0.0
 34
0.0
 15
420.0
 25
297.0
 35
0.0
146
0.0
 13
0.0
 23
0.0
 33
0.0
 16
1.0
 26
0.0
 36
0.0
 17
0.0
 27
1.0
 37
0.0
 76
     0
330
1F
331
29
  0
MATERIAL
  5
45
102
{ACAD_REACTORS
330
43
102
}
330
43
100
AcDbMaterial
  1
ByBlock
 72
     1
 94
      127
  0
MATERIAL
  5
44
102
{ACAD_REACTORS
330
43
102
}
330
43
100
AcDbMaterial
  1
ByLayer
 72
     1
 94
      127
  0
MATERIAL
  5
46
102
{ACAD_REACTORS
330
43
102
}
330
43
100
AcDbMaterial
  1
Global
 72
     1
 94
      127
  0
MLEADERSTYLE
  5
6C
102
{ACAD_REACTORS
330
6B
102
}
102
{ACAD_XDICTIONARY
360
32B
102
}
330
6B
100
AcDbMLeaderStyle
170
     2
171
     1
172
     0
 90
        2
 40
0.0
 41
0.0
173
     1
 91
-1056964608
340
14
 92
       -2
290
     1
 42
2.0
291
     1
 43
8.0
  3
Standard
341
0
 44
4.0
300

342
11
174
     1
178
     6
175
     1
176
     0
 93
-1056964608
 45
4.0
292
     0
297
     0
 46
4.0
343
0
 94
-1056964608
 47
1.0
 49
1.0
140
1.0
293
     1
141
0.0
294
     1
177
     0
142
1.0
295
     0
296
     0
143
3.75
1001
ACAD_MLEADERVER
1070
     2
  0
MLINESTYLE
  5
18
102
{ACAD_REACTORS
330
17
102
}
330
17
100
AcDbMlineStyle
  2
Standard
 70
     0
  3

 62
   256
 51
90.0
 52
90.0
 71
     2
 49
0.5
 62
   256
  6
BYLAYER
 49
-0.5
 62
   256
  6
BYLAYER
  0
ACDBPLACEHOLDER
  5
F
102
{ACAD_REACTORS
330
E
102
}
330
E
  0
SCALE
  5
48
102
{ACAD_REACTORS
330
47
102
}
330
47
100
AcDbScale
 70
     0
300
1:1
140
1.0
141
1.0
290
     1
  0
SCALE
  5
49
102
{ACAD_REACTORS
330
47
102
}
330
47
100
AcDbScale
 70
     0
300
1:2
140
1.0
141
2.0
290
     0
  0
SCALE
  5
4A
102
{ACAD_REACTORS
330
47
102
}
330
47
100
AcDbScale
 70
     0
300
1:4
140
1.0
141
4.0
290
     0
  0
SCALE
  5
4B
102
{ACAD_REACTORS
330
47
102
}
330
47
100
AcDbScale
 70
     0
300
1:5
140
1.0
141
5.0
290
     0
  0
SCALE
  5
4C
102
{ACAD_REACTORS
330
47
102
}
330
47
100
AcDbScale
 70
     0
300
1:8
140
1.0
141
8.0
290
     0
  0
SCALE
  5
4D
102
{ACAD_REACTORS
330
47
102
}
330
47
100
AcDbScale
 70
     0
300
1:10
140
1.0
141
10.0
290
     0
  0
SCALE
  5
4E
102
{ACAD_REACTORS
330
47
102
}
330
47
100
AcDbScale
 70
     0
300
1:16
140
1.0
141
16.0
290
     0
  0
SCALE
  5
4F
102
{ACAD_REACTORS
330
47
102
}
330
47
100
AcDbScale
 70
     0
300
1:20
140
1.0
141
20.0
290
     0
  0
SCALE
  5
50
102
{ACAD_REACTORS
330
47
102
}
330
47
100
AcDbScale
 70
     0
300
1:30
140
1.0
141
30.0
290
     0
  0
SCALE
  5
51
102
{ACAD_REACTORS
330
47
102
}
330
47
100
AcDbScale
 70
     0
300
1:40
140
1.0
141
40.0
290
     0
  0
SCALE
  5
52
102
{ACAD_REACTORS
330
47
102
}
330
47
100
AcDbScale
 70
     0
300
1:50
140
1.0
141
50.0
290
     0
  0
SCALE
  5
53
102
{ACAD_REACTORS
330
47
102
}
330
47
100
AcDbScale
 70
     0
300
1:100
140
1.0
141
100.0
290
     0
  0
SCALE
  5
54
102
{ACAD_REACTORS
330
47
102
}
330
47
100
AcDbScale
 70
     0
300
2:1
140
2.0
141
1.0
290
     0
  0
SCALE
  5
55
102
{ACAD_REACTORS
330
47
102
}
330
47
100
AcDbScale
 70
     0
300
4:1
140
4.0
141
1.0
290
     0
  0
SCALE
  5
56
102
{ACAD_REACTORS
330
47
102
}
330
47
100
AcDbScale
 70
     0
300
8:1
140
8.0
141
1.0
290
     0
  0
SCALE
  5
57
102
{ACAD_REACTORS
330
47
102
}
330
47
100
AcDbScale
 70
     0
300
10:1
140
10.0
141
1.0
290
     0
  0
SCALE
  5
58
102
{ACAD_REACTORS
330
47
102
}
330
47
100
AcDbScale
 70
     0
300
100:1
140
100.0
141
1.0
290
     0
  0
SCALE
  5
59
102
{ACAD_REACTORS
330
47
102
}
330
47
100
AcDbScale
 70
     0
300
1/128" = 1'-0"
140
0.0078125
141
12.0
290
     0
  0
SCALE
  5
5A
102
{ACAD_REACTORS
330
47
102
}
330
47
100
AcDbScale
 70
     0
300
1/64" = 1'-0"
140
0.015625
141
12.0
290
     0
  0
SCALE
  5
5B
102
{ACAD_REACTORS
330
47
102
}
330
47
100
AcDbScale
 70
     0
300
1/32" = 1'-0"
140
0.03125
141
12.0
290
     0
  0
SCALE
  5
5C
102
{ACAD_REACTORS
330
47
102
}
330
47
100
AcDbScale
 70
     0
300
1/16" = 1'-0"
140
0.0625
141
12.0
290
     0
  0
SCALE
  5
5D
102
{ACAD_REACTORS
330
47
102
}
330
47
100
AcDbScale
 70
     0
300
3/32" = 1'-0"
140
0.09375
141
12.0
290
     0
  0
SCALE
  5
5E
102
{ACAD_REACTORS
330
47
102
}
330
47
100
AcDbScale
 70
     0
300
1/8" = 1'-0"
140
0.125
141
12.0
290
     0
  0
SCALE
  5
5F
102
{ACAD_REACTORS
330
47
102
}
330
47
100
AcDbScale
 70
     0
300
3/16" = 1'-0"
140
0.1875
141
12.0
290
     0
  0
SCALE
  5
60
102
{ACAD_REACTORS
330
47
102
}
330
47
100
AcDbScale
 70
     0
300
1/4" = 1'-0"
140
0.25
141
12.0
290
     0
  0
SCALE
  5
61
102
{ACAD_REACTORS
330
47
102
}
330
47
100
AcDbScale
 70
     0
300
3/8" = 1'-0"
140
0.375
141
12.0
290
     0
  0
SCALE
  5
62
102
{ACAD_REACTORS
330
47
102
}
330
47
100
AcDbScale
 70
     0
300
1/2" = 1'-0"
140
0.5
141
12.0
290
     0
  0
SCALE
  5
63
102
{ACAD_REACTORS
330
47
102
}
330
47
100
AcDbScale
 70
     0
300
3/4" = 1'-0"
140
0.75
141
12.0
290
     0
  0
SCALE
  5
64
102
{ACAD_REACTORS
330
47
102
}
330
47
100
AcDbScale
 70
     0
300
1" = 1'-0"
140
1.0
141
12.0
290
     0
  0
SCALE
  5
65
102
{ACAD_REACTORS
330
47
102
}
330
47
100
AcDbScale
 70
     0
300
1-1/2" = 1'-0"
140
1.5
141
12.0
290
     0
  0
SCALE
  5
66
102
{ACAD_REACTORS
330
47
102
}
330
47
100
AcDbScale
 70
     0
300
3" = 1'-0"
140
3.0
141
12.0
290
     0
  0
SCALE
  5
67
102
{ACAD_REACTORS
330
47
102
}
330
47
100
AcDbScale
 70
     0
300
6" = 1'-0"
140
6.0
141
12.0
290
     0
  0
SCALE
  5
68
102
{ACAD_REACTORS
330
47
102
}
330
47
100
AcDbScale
 70
     0
300
1'-0" = 1'-0"
140
12.0
141
12.0
290
     0
  0
TABLESTYLE
  5
6A
102
{ACAD_REACTORS
330
69
102
}
102
{ACAD_XDICTIONARY
360
329
102
}
330
69
100
AcDbTableStyle
  3
Standard
 70
     0
 71
     0
 40
0.06
 41
0.06
280
     0
281
     0
  7
Standard
140
4.5
170
     2
 62
     0
 63
   257
283
     0
 90
        4
 91
        0
  1

274
    -2
284
     1
 64
     0
275
    -2
285
     1
 65
     0
276
    -2
286
     1
 66
     0
277
    -2
287
     1
 67
     0
278
    -2
288
     1
 68
     0
279
    -2
289
     1
 69
     0
  7
Standard
140
6.0
170
     5
 62
     0
 63
   257
283
     0
 90
        4
 91
        0
  1

274
    -2
284
     1
 64
     0
275
    -2
285
     1
 65
     0
276
    -2
286
     1
 66
     0
277
    -2
287
     1
 67
     0
278
    -2
288
     1
 68
     0
279
    -2
289
     1
 69
     0
  7
Standard
140
4.5
170
     5
 62
     0
 63
   257
283
     0
 90
        4
 91
        0
  1

274
    -2
284
     1
 64
     0
275
    -2
285
     1
 65
     0
276
    -2
286
     1
 66
     0
277
    -2
287
     1
 67
     0
278
    -2
288
     1
 68
     0
279
    -2
289
     1
 69
     0
  0
VISUALSTYLE
  5
2F
102
{ACAD_REACTORS
330
2A
102
}
102
{ACAD_XDICTIONARY
360
301
102
}
330
2A
100
AcDbVisualStyle
  2
2dWireframe
 70
     4
 71
     0
 72
     2
 73
     0
 90
        0
 40
0.6
 41
30.0
 62
     5
 63
     7
421
 16777215
 74
     1
 91
        4
 64
     7
 65
   257
 75
     1
175
     1
 42
1.0
 92
        0
 66
   257
 43
1.0
 76
     1
 77
     6
 78
     2
 67
     7
 79
     5
170
     0
171
     0
290
     0
174
     0
 93
        1
 44
0.0
173
     0
291
     0
 45
0.0
  0
VISUALSTYLE
  5
32
102
{ACAD_REACTORS
330
2A
102
}
102
{ACAD_XDICTIONARY
360
307
102
}
330
2A
100
AcDbVisualStyle
  2
Basic
 70
     7
 71
     1
 72
     0
 73
     1
 90
        0
 40
0.6
 41
30.0
 62
     5
 63
     7
421
 16777215
 74
     0
 91
        4
 64
     7
 65
   257
 75
     1
175
     1
 42
1.0
 92
        8
 66
     7
 43
1.0
 76
     1
 77
     6
 78
     2
 67
     7
 79
     5
170
     0
171
     0
290
     0
174
     0
 93
        1
 44
0.0
173
     0
291
     1
 45
0.0
  0
VISUALSTYLE
  5
36
102
{ACAD_REACTORS
330
2A
102
}
102
{ACAD_XDICTIONARY
360
30F
102
}
330
2A
100
AcDbVisualStyle
  2
Brighten
 70
    12
 71
     2
 72
     2
 73
     0
 90
        0
 40
0.6
 41
30.0
 62
     5
 63
     7
421
 16777215
 74
     1
 91
        4
 64
     7
 65
   257
 75
     1
175
     1
 42
1.0
 92
        8
 66
     7
 43
1.0
 76
     1
 77
     6
 78
     2
 67
     7
 79
     5
170
     0
171
     0
290
     0
174
     0
 93
        1
 44
50.0
173
     0
291
     1
 45
0.0
  0
VISUALSTYLE
  5
3A
102
{ACAD_REACTORS
330
2A
102
}
102
{ACAD_XDICTIONARY
360
317
102
}
330
2A
100
AcDbVisualStyle
  2
ColorChange
 70
    16
 71
     2
 72
     2
 73
     3
 90
        0
 40
0.6
 41
30.0
 62
     5
 63
     8
421
  8421504
 74
     1
 91
        4
 64
     7
 65
   257
 75
     1
175
     1
 42
1.0
 92
        8
 66
     8
424
  8421504
 43
1.0
 76
     1
 77
     6
 78
     2
 67
     7
 79
     5
170
     0
171
     0
290
     0
174
     0
 93
        1
 44
0.0
173
     0
291
     1
 45
0.0
  0
VISUALSTYLE
  5
34
102
{ACAD_REACTORS
330
2A
102
}
102
{ACAD_XDICTIONARY
360
30B
102
}
330
2A
100
AcDbVisualStyle
  2
Conceptual
 70
     9
 71
     3
 72
     2
 73
     0
 90
        0
 40
0.6
 41
30.0
 62
     5
 63
     7
421
 16777215
 74
     2
 91
        2
 64
     7
 65
   257
 75
     1
175
     1
 42
179.0
 92
        8
 66
     7
 43
1.0
 76
     1
 77
     6
 78
     2
 67
     7
 79
     3
170
     0
171
     0
290
     0
174
     0
 93
        1
 44
0.0
173
     0
291
     0
 45
0.0
  0
VISUALSTYLE
  5
35
102
{ACAD_REACTORS
330
2A
102
}
102
{ACAD_XDICTIONARY
360
30D
102
}
330
2A
100
AcDbVisualStyle
  2
Dim
 70
    11
 71
     2
 72
     2
 73
     0
 90
        0
 40
0.6
 41
30.0
 62
     5
 63
     7
421
 16777215
 74
     1
 91
        4
 64
     7
 65
   257
 75
     1
175
     1
 42
1.0
 92
        8
 66
     7
 43
1.0
 76
     1
 77
     6
 78
     2
 67
     7
 79
     5
170
     0
171
     0
290
     0
174
     0
 93
        1
 44
-50.0
173
     0
291
     1
 45
0.0
  0
VISUALSTYLE
  5
3D
102
{ACAD_REACTORS
330
2A
102
}
102
{ACAD_XDICTIONARY
360
31D
102
}
330
2A
100
AcDbVisualStyle
  2
EdgeColorOff
 70
    22
 71
     2
 72
     2
 73
     0
 90
        0
 40
0.6
 41
30.0
 62
     5
 63
     7
421
 16777215
 74
     1
 91
        4
 64
     7
 65
   257
 75
     1
175
     1
 42
1.0
 92
        8
 66
     7
 43
1.0
 76
     1
 77
     6
 78
     2
 67
     7
 79
     5
170
     0
171
     0
290
     0
174
     0
 93
        1
 44
0.0
173
     0
291
     1
 45
0.0
  0
VISUALSTYLE
  5
39
102
{ACAD_REACTORS
330
2A
102
}
102
{ACAD_XDICTIONARY
360
315
102
}
330
2A
100
AcDbVisualStyle
  2
Facepattern
 70
    15
 71
     2
 72
     2
 73
     0
 90
        0
 40
0.6
 41
30.0
 62
     5
 63
     7
421
 16777215
 74
     1
 91
        4
 64
     7
 65
   257
 75
     1
175
     1
 42
1.0
 92
        8
 66
     7
 43
1.0
 76
     1
 77
     6
 78
     2
 67
     7
 79
     5
170
     0
171
     0
290
     0
174
     0
 93
        1
 44
0.0
173
     0
291
     1
 45
0.0
  0
VISUALSTYLE
  5
2B
102
{ACAD_REACTORS
330
2A
102
}
102
{ACAD_XDICTIONARY
360
2F9
102
}
330
2A
100
AcDbVisualStyle
  2
Flat
 70
     0
 71
     2
 72
     1
 73
     1
 90
        2
 40
0.6
 41
30.0
 62
     5
 63
     7
421
 16777215
 74
     0
 91
        0
 64
     7
 65
   257
 75
     1
175
     1
 42
1.0
 92
        8
 66
     7
 43
1.0
 76
     1
 77
     6
 78
     2
 67
     7
 79
     5
170
     0
171
     0
290
     0
174
     0
 93
       13
 44
0.0
173
     0
291
     1
 45
0.0
  0
VISUALSTYLE
  5
2C
102
{ACAD_REACTORS
330
2A
102
}
102
{ACAD_XDICTIONARY
360
2FB
102
}
330
2A
100
AcDbVisualStyle
  2
FlatWithEdges
 70
     1
 71
     2
 72
     1
 73
     1
 90
        2
 40
0.6
 41
30.0
 62
     5
 63
     7
421
 16777215
 74
     1
 91
        0
 64
     7
 65
   257
 75
     1
175
     1
 42
1.0
 92
        0
 66
   257
 43
1.0
 76
     1
 77
     6
 78
     2
 67
     7
 79
     5
170
     0
171
     0
290
     0
174
     0
 93
       13
 44
0.0
173
     0
291
     1
 45
0.0
  0
VISUALSTYLE
  5
2D
102
{ACAD_REACTORS
330
2A
102
}
102
{ACAD_XDICTIONARY
360
2FD
102
}
330
2A
100
AcDbVisualStyle
  2
Gouraud
 70
     2
 71
     2
 72
     2
 73
     1
 90
        2
 40
0.6
 41
30.0
 62
     5
 63
     7
421
 16777215
 74
     0
 91
        0
 64
     7
 65
   257
 75
     1
175
     1
 42
1.0
 92
        0
 66
     7
 43
1.0
 76
     1
 77
     6
 78
     2
 67
     7
 79
     5
170
     0
171
     0
290
     0
174
     0
 93
       13
 44
0.0
173
     0
291
     1
 45
0.0
  0
VISUALSTYLE
  5
2E
102
{ACAD_REACTORS
330
2A
102
}
102
{ACAD_XDICTIONARY
360
2FF
102
}
330
2A
100
AcDbVisualStyle
  2
GouraudWithEdges
 70
     3
 71
     2
 72
     2
 73
     1
 90
        2
 40
0.6
 41
30.0
 62
     5
 63
     7
421
 16777215
 74
     1
 91
        0
 64
     7
 65
   257
 75
     1
175
     1
 42
1.0
 92
        0
 66
   257
 43
1.0
 76
     1
 77
     6
 78
     2
 67
     7
 79
     5
170
     0
171
     0
290
     0
174
     0
 93
       13
 44
0.0
173
     0
291
     1
 45
0.0
  0
VISUALSTYLE
  5
31
102
{ACAD_REACTORS
330
2A
102
}
102
{ACAD_XDICTIONARY
360
305
102
}
330
2A
100
AcDbVisualStyle
  2
Hidden
 70
     6
 71
     1
 72
     2
 73
     2
 90
        0
 40
0.6
 41
30.0
 62
     5
 63
     7
421
 16777215
 74
     2
 91
        2
 64
     7
 65
   257
 75
     2
175
     1
 42
40.0
 92
        0
 66
   257
 43
1.0
 76
     1
 77
     6
 78
     2
 67
     7
 79
     3
170
     0
171
     0
290
     0
174
     0
 93
        1
 44
0.0
173
     0
291
     0
 45
0.0
  0
VISUALSTYLE
  5
3B
102
{ACAD_REACTORS
330
2A
102
}
102
{ACAD_XDICTIONARY
360
319
102
}
330
2A
100
AcDbVisualStyle
  2
JitterOff
 70
    20
 71
     2
 72
     2
 73
     0
 90
        0
 40
0.6
 41
30.0
 62
     5
 63
     7
421
 16777215
 74
     1
 91
        4
 64
     7
 65
   257
 75
     1
175
     1
 42
1.0
 92
       10
 66
     7
 43
1.0
 76
     1
 77
     6
 78
     2
 67
     7
 79
     5
170
     0
171
     0
290
     0
174
     0
 93
        1
 44
0.0
173
     0
291
     1
 45
0.0
  0
VISUALSTYLE
  5
38
102
{ACAD_REACTORS
330
2A
102
}
102
{ACAD_XDICTIONARY
360
313
102
}
330
2A
100
AcDbVisualStyle
  2
Linepattern
 70
    14
 71
     2
 72
     2
 73
     0
 90
        0
 40
0.6
 41
30.0
 62
     5
 63
     7
421
 16777215
 74
     1
 91
        4
 64
     7
 65
   257
 75
     7
175
     7
 42
1.0
 92
        8
 66
     7
 43
1.0
 76
     1
 77
     6
 78
     2
 67
     7
 79
     5
170
     0
171
     0
290
     0
174
     0
 93
        1
 44
0.0
173
     0
291
     1
 45
0.0
  0
VISUALSTYLE
  5
3C
102
{ACAD_REACTORS
330
2A
102
}
102
{ACAD_XDICTIONARY
360
31B
102
}
330
2A
100
AcDbVisualStyle
  2
OverhangOff
 70
    21
 71
     2
 72
     2
 73
     0
 90
        0
 40
0.6
 41
30.0
 62
     5
 63
     7
421
 16777215
 74
     1
 91
        4
 64
     7
 65
   257
 75
     1
175
     1
 42
1.0
 92
        9
 66
     7
 43
1.0
 76
     1
 77
     6
 78
     2
 67
     7
 79
     5
170
     0
171
     0
290
     0
174
     0
 93
        1
 44
0.0
173
     0
291
     1
 45
0.0
  0
VISUALSTYLE
  5
33
102
{ACAD_REACTORS
330
2A
102
}
102
{ACAD_XDICTIONARY
360
309
102
}
330
2A
100
AcDbVisualStyle
  2
Realistic
 70
     8
 71
     2
 72
     3
 73
     0
 90
        2
 40
0.6
 41
30.0
 62
     5
 63
     7
421
 16777215
 74
     0
 91
        0
 64
     7
 65
   257
 75
     1
175
     1
 42
1.0
 92
        8
 66
   257
 43
1.0
 76
     1
 77
     6
 78
     2
 67
     7
 79
     3
170
     0
171
     0
290
     0
174
     0
 93
       13
 44
0.0
173
     0
291
     0
 45
0.0
  0
VISUALSTYLE
  5
42
102
{ACAD_REACTORS
330
2A
102
}
102
{ACAD_XDICTIONARY
360
327
102
}
330
2A
100
AcDbVisualStyle
  2
Shaded
 70
    27
 71
     2
 72
     2
 73
     1
 90
        2
 40
0.6
 41
30.0
 62
     5
 63
     7
421
 16777215
 74
     0
 91
        4
 64
     7
 65
   257
 75
     1
175
     1
 42
1.0
 92
        8
 66
   257
 43
1.0
 76
     1
 77
     6
 78
     2
 67
     8
425
  7895160
 79
     3
170
     0
171
     0
290
     0
174
     0
 93
        5
 44
0.0
173
     0
291
     0
 45
0.0
  0
VISUALSTYLE
  5
41
102
{ACAD_REACTORS
330
2A
102
}
102
{ACAD_XDICTIONARY
360
325
102
}
330
2A
100
AcDbVisualStyle
  2
Shaded with edges
 70
    26
 71
     2
 72
     2
 73
     1
 90
        2
 40
0.6
 41
30.0
 62
     5
 63
     7
421
 16777215
 74
     1
 91
       10
 64
     7
 65
   257
 75
     2
175
     1
 42
1.0
 92
        8
 66
   257
 43
1.0
 76
     1
 77
     6
 78
     2
 67
     7
 79
     3
170
     0
171
     0
290
     0
174
     0
 93
        5
 44
0.0
173
     0
291
     0
 45
0.0
  0
VISUALSTYLE
  5
3E
102
{ACAD_REACTORS
330
2A
102
}
102
{ACAD_XDICTIONARY
360
31F
102
}
330
2A
100
AcDbVisualStyle
  2
Shades of Gray
 70
    23
 71
     2
 72
     2
 73
     3
 90
        0
 40
0.6
 41
30.0
 62
     5
 63
     7
421
 16777215
 74
     2
 91
        2
 64
     7
 65
     7
 75
     1
175
     1
 42
40.0
 92
        8
 66
     7
 43
1.0
 76
     1
 77
     6
 78
     2
 67
     7
 79
     3
170
     0
171
     0
290
     0
174
     0
 93
        1
 44
0.0
173
     0
291
     0
 45
0.0
  0
VISUALSTYLE
  5
3F
102
{ACAD_REACTORS
330
2A
102
}
102
{ACAD_XDICTIONARY
360
321
102
}
330
2A
100
AcDbVisualStyle
  2
Sketchy
 70
    24
 71
     1
 72
     2
 73
     2
 90
        0
 40
0.6
 41
30.0
 62
     5
 63
     7
421
 16777215
 74
     2
 91
        2
 64
     7
 65
     7
 75
     1
175
     1
 42
40.0
 92
       11
 66
     7
 43
1.0
 76
     1
 77
     6
 78
     2
 67
     7
 79
     6
170
     0
171
     0
290
     0
174
     0
 93
        1
 44
0.0
173
     0
291
     0
 45
0.0
  0
VISUALSTYLE
  5
37
102
{ACAD_REACTORS
330
2A
102
}
102
{ACAD_XDICTIONARY
360
311
102
}
330
2A
100
AcDbVisualStyle
  2
Thicken
 70
    13
 71
     2
 72
     2
 73
     0
 90
        0
 40
0.6
 41
30.0
 62
     5
 63
     7
421
 16777215
 74
     1
 91
        4
 64
     7
 65
   257
 75
     1
175
     1
 42
1.0
 92
       12
 66
     7
 43
1.0
 76
     1
 77
     6
 78
     2
 67
     7
 79
     5
170
     0
171
     0
290
     0
174
     0
 93
        1
 44
0.0
173
     0
291
     1
 45
0.0
  0
VISUALSTYLE
  5
30
102
{ACAD_REACTORS
330
2A
102
}
102
{ACAD_XDICTIONARY
360
303
102
}
330
2A
100
AcDbVisualStyle
  2
Wireframe
 70
     5
 71
     0
 72
     2
 73
     0
 90
        0
 40
0.6
 41
30.0
 62
     5
 63
     7
421
 16777215
 74
     1
 91
        4
 64
     7
 65
   257
 75
     1
175
     1
 42
1.0
 92
        0
 66
   257
 43
1.0
 76
     1
 77
     6
 78
     2
 67
     7
 79
     3
170
     0
171
     0
290
     0
174
     0
 93
        1
 44
0.0
173
     0
291
     0
 45
0.0
  0
VISUALSTYLE
  5
40
102
{ACAD_REACTORS
330
2A
102
}
102
{ACAD_XDICTIONARY
360
323
102
}
330
2A
100
AcDbVisualStyle
  2
X-Ray
 70
    25
 71
     2
 72
     2
 73
     1
 90
        1
 40
0.5
 41
30.0
 62
     5
 63
     7
421
 16777215
 74
     1
 91
        0
 64
     7
 65
   257
 75
     1
175
     1
 42
1.0
 92
        8
 66
     7
 43
1.0
 76
     1
 77
     6
 78
     2
 67
     7
 79
     3
170
     0
171
     0
290
     0
174
     0
 93
       13
 44
0.0
173
     0
291
     0
 45
0.0
  0
DICTIONARYVAR
  5
2F7
102
{ACAD_REACTORS
330
2F6
102
}
330
2F6
100
DictionaryVariables
280
     0
  1
1:1
  0
DICTIONARYVAR
  5
332
102
{ACAD_REACTORS
330
2F6
102
}
330
2F6
100
DictionaryVariables
280
     0
  1
3.500000
  0
DICTIONARYVAR
  5
333
102
{ACAD_REACTORS
330
2F6
102
}
330
2F6
100
DictionaryVariables
280
     0
  1
acadiso.lin
  0
DICTIONARYVAR
  5
32F
102
{ACAD_REACTORS
330
2F6
102
}
330
2F6
100
DictionaryVariables
280
     0
  1
Standard
  0
DICTIONARYVAR
  5
32E
102
{ACAD_REACTORS
330
2F6
102
}
330
2F6
100
DictionaryVariables
280
     0
  1
Standard
  0
DICTIONARYVAR
  5
2F8
102
{ACAD_REACTORS
330
2F6
102
}
330
2F6
100
DictionaryVariables
280
     0
  1
2
  0
DICTIONARY
  5
32B
330
6C
100
AcDbDictionary
280
     1
281
     1
  3
ACAD_XREC_ROUNDTRIP
360
32C
  0
DICTIONARY
  5
329
330
6A
100
AcDbDictionary
280
     1
281
     1
  3
ACAD_ROUNDTRIP_2008_TABLESTYLE_CELLSTYLEMAP
360
32A
  0
DICTIONARY
  5
301
330
2F
100
AcDbDictionary
280
     1
281
     1
  3
ACAD_XREC_ROUNDTRIP
360
302
  0
DICTIONARY
  5
307
330
32
100
AcDbDictionary
280
     1
281
     1
  3
ACAD_XREC_ROUNDTRIP
360
308
  0
DICTIONARY
  5
30F
330
36
100
AcDbDictionary
280
     1
281
     1
  3
ACAD_XREC_ROUNDTRIP
360
310
  0
DICTIONARY
  5
317
330
3A
100
AcDbDictionary
280
     1
281
     1
  3
ACAD_XREC_ROUNDTRIP
360
318
  0
DICTIONARY
  5
30B
330
34
100
AcDbDictionary
280
     1
281
     1
  3
ACAD_XREC_ROUNDTRIP
360
30C
  0
DICTIONARY
  5
30D
330
35
100
AcDbDictionary
280
     1
281
     1
  3
ACAD_XREC_ROUNDTRIP
360
30E
  0
DICTIONARY
  5
31D
330
3D
100
AcDbDictionary
280
     1
281
     1
  3
ACAD_XREC_ROUNDTRIP
360
31E
  0
DICTIONARY
  5
315
330
39
100
AcDbDictionary
280
     1
281
     1
  3
ACAD_XREC_ROUNDTRIP
360
316
  0
DICTIONARY
  5
2F9
330
2B
100
AcDbDictionary
280
     1
281
     1
  3
ACAD_XREC_ROUNDTRIP
360
2FA
  0
DICTIONARY
  5
2FB
330
2C
100
AcDbDictionary
280
     1
281
     1
  3
ACAD_XREC_ROUNDTRIP
360
2FC
  0
DICTIONARY
  5
2FD
330
2D
100
AcDbDictionary
280
     1
281
     1
  3
ACAD_XREC_ROUNDTRIP
360
2FE
  0
DICTIONARY
  5
2FF
330
2E
100
AcDbDictionary
280
     1
281
     1
  3
ACAD_XREC_ROUNDTRIP
360
300
  0
DICTIONARY
  5
305
330
31
100
AcDbDictionary
280
     1
281
     1
  3
ACAD_XREC_ROUNDTRIP
360
306
  0
DICTIONARY
  5
319
330
3B
100
AcDbDictionary
280
     1
281
     1
  3
ACAD_XREC_ROUNDTRIP
360
31A
  0
DICTIONARY
  5
313
330
38
100
AcDbDictionary
280
     1
281
     1
  3
ACAD_XREC_ROUNDTRIP
360
314
  0
DICTIONARY
  5
31B
330
3C
100
AcDbDictionary
280
     1
281
     1
  3
ACAD_XREC_ROUNDTRIP
360
31C
  0
DICTIONARY
  5
309
330
33
100
AcDbDictionary
280
     1
281
     1
  3
ACAD_XREC_ROUNDTRIP
360
30A
  0
DICTIONARY
  5
327
330
42
100
AcDbDictionary
280
     1
281
     1
  3
ACAD_XREC_ROUNDTRIP
360
328
  0
DICTIONARY
  5
325
330
41
100
AcDbDictionary
280
     1
281
     1
  3
ACAD_XREC_ROUNDTRIP
360
326
  0
DICTIONARY
  5
31F
330
3E
100
AcDbDictionary
280
     1
281
     1
  3
ACAD_XREC_ROUNDTRIP
360
320
  0
DICTIONARY
  5
321
330
3F
100
AcDbDictionary
280
     1
281
     1
  3
ACAD_XREC_ROUNDTRIP
360
322
  0
DICTIONARY
  5
311
330
37
100
AcDbDictionary
280
     1
281
     1
  3
ACAD_XREC_ROUNDTRIP
360
312
  0
DICTIONARY
  5
303
330
30
100
AcDbDictionary
280
     1
281
     1
  3
ACAD_XREC_ROUNDTRIP
360
304
  0
DICTIONARY
  5
323
330
40
100
AcDbDictionary
280
     1
281
     1
  3
ACAD_XREC_ROUNDTRIP
360
324
  0
XRECORD
  5
32C
102
{ACAD_REACTORS
330
32B
102
}
330
32B
100
AcDbXrecord
280
     1
102
ACAD_ROUNDTRIP_2010_MLEADER_STYLE
  0
CELLSTYLEMAP
  5
32A
102
{ACAD_REACTORS
330
329
102
}
330
329
100
AcDbCellStyleMap
 90
        3
300
CELLSTYLE
  1
TABLEFORMAT_BEGIN
 90
        5
170
     1
 91
        0
 92
    32768
 62
   257
 93
        1
300
CONTENTFORMAT
  1
CONTENTFORMAT_BEGIN
 90
        0
 91
        0
 92
        4
 93
        0
300

 40
0.0
140
1.0
 94
        5
 62
     0
340
11
144
6.0
309
CONTENTFORMAT_END
171
     1
301
MARGIN
  1
CELLMARGIN_BEGIN
 40
1.5
 40
1.5
 40
1.5
 40
1.5
 40
1.5
 40
1.5
309
CELLMARGIN_END
 94
        6
 95
        1
302
GRIDFORMAT
  1
GRIDFORMAT_BEGIN
 90
        0
 91
        1
 62
     0
 92
       -2
340
14
 93
        0
 40
0.045
309
GRIDFORMAT_END
 95
        2
302
GRIDFORMAT
  1
GRIDFORMAT_BEGIN
 90
        0
 91
        1
 62
     0
 92
       -2
340
14
 93
        0
 40
0.045
309
GRIDFORMAT_END
 95
        4
302
GRIDFORMAT
  1
GRIDFORMAT_BEGIN
 90
        0
 91
        1
 62
     0
 92
       -2
340
14
 93
        0
 40
0.045
309
GRIDFORMAT_END
 95
        8
302
GRIDFORMAT
  1
GRIDFORMAT_BEGIN
 90
        0
 91
        1
 62
     0
 92
       -2
340
14
 93
        0
 40
0.045
309
GRIDFORMAT_END
 95
       16
302
GRIDFORMAT
  1
GRIDFORMAT_BEGIN
 90
        0
 91
        1
 62
     0
 92
       -2
340
14
 93
        0
 40
0.045
309
GRIDFORMAT_END
 95
       32
302
GRIDFORMAT
  1
GRIDFORMAT_BEGIN
 90
        0
 91
        1
 62
     0
 92
       -2
340
14
 93
        0
 40
0.045
309
GRIDFORMAT_END
309
TABLEFORMAT_END
  1
CELLSTYLE_BEGIN
 90
        1
 91
        1
300
_TITLE
309
CELLSTYLE_END
300
CELLSTYLE
  1
TABLEFORMAT_BEGIN
 90
        5
170
     1
 91
        0
 92
        0
 62
   257
 93
        1
300
CONTENTFORMAT
  1
CONTENTFORMAT_BEGIN
 90
        0
 91
        0
 92
        4
 93
        0
300

 40
0.0
140
1.0
 94
        5
 62
     0
340
11
144
4.5
309
CONTENTFORMAT_END
171
     1
301
MARGIN
  1
CELLMARGIN_BEGIN
 40
1.5
 40
1.5
 40
1.5
 40
1.5
 40
1.5
 40
1.5
309
CELLMARGIN_END
 94
        6
 95
        1
302
GRIDFORMAT
  1
GRIDFORMAT_BEGIN
 90
        0
 91
        1
 62
     0
 92
       -2
340
14
 93
        0
 40
0.045
309
GRIDFORMAT_END
 95
        2
302
GRIDFORMAT
  1
GRIDFORMAT_BEGIN
 90
        0
 91
        1
 62
     0
 92
       -2
340
14
 93
        0
 40
0.045
309
GRIDFORMAT_END
 95
        4
302
GRIDFORMAT
  1
GRIDFORMAT_BEGIN
 90
        0
 91
        1
 62
     0
 92
       -2
340
14
 93
        0
 40
0.045
309
GRIDFORMAT_END
 95
        8
302
GRIDFORMAT
  1
GRIDFORMAT_BEGIN
 90
        0
 91
        1
 62
     0
 92
       -2
340
14
 93
        0
 40
0.045
309
GRIDFORMAT_END
 95
       16
302
GRIDFORMAT
  1
GRIDFORMAT_BEGIN
 90
        0
 91
        1
 62
     0
 92
       -2
340
14
 93
        0
 40
0.045
309
GRIDFORMAT_END
 95
       32
302
GRIDFORMAT
  1
GRIDFORMAT_BEGIN
 90
        0
 91
        1
 62
     0
 92
       -2
340
14
 93
        0
 40
0.045
309
GRIDFORMAT_END
309
TABLEFORMAT_END
  1
CELLSTYLE_BEGIN
 90
        2
 91
        1
300
_HEADER
309
CELLSTYLE_END
300
CELLSTYLE
  1
TABLEFORMAT_BEGIN
 90
        5
170
     1
 91
        0
 92
        0
 62
   257
 93
        1
300
CONTENTFORMAT
  1
CONTENTFORMAT_BEGIN
 90
        0
 91
        0
 92
        4
 93
        0
300

 40
0.0
140
1.0
 94
        2
 62
     0
340
11
144
4.5
309
CONTENTFORMAT_END
171
     1
301
MARGIN
  1
CELLMARGIN_BEGIN
 40
1.5
 40
1.5
 40
1.5
 40
1.5
 40
1.5
 40
1.5
309
CELLMARGIN_END
 94
        6
 95
        1
302
GRIDFORMAT
  1
GRIDFORMAT_BEGIN
 90
        0
 91
        1
 62
     0
 92
       -2
340
14
 93
        0
 40
0.045
309
GRIDFORMAT_END
 95
        2
302
GRIDFORMAT
  1
GRIDFORMAT_BEGIN
 90
        0
 91
        1
 62
     0
 92
       -2
340
14
 93
        0
 40
0.045
309
GRIDFORMAT_END
 95
        4
302
GRIDFORMAT
  1
GRIDFORMAT_BEGIN
 90
        0
 91
        1
 62
     0
 92
       -2
340
14
 93
        0
 40
0.045
309
GRIDFORMAT_END
 95
        8
302
GRIDFORMAT
  1
GRIDFORMAT_BEGIN
 90
        0
 91
        1
 62
     0
 92
       -2
340
14
 93
        0
 40
0.045
309
GRIDFORMAT_END
 95
       16
302
GRIDFORMAT
  1
GRIDFORMAT_BEGIN
 90
        0
 91
        1
 62
     0
 92
       -2
340
14
 93
        0
 40
0.045
309
GRIDFORMAT_END
 95
       32
302
GRIDFORMAT
  1
GRIDFORMAT_BEGIN
 90
        0
 91
        1
 62
     0
 92
       -2
340
14
 93
        0
 40
0.045
309
GRIDFORMAT_END
309
TABLEFORMAT_END
  1
CELLSTYLE_BEGIN
 90
        3
 91
        2
300
_DATA
309
CELLSTYLE_END
  0
XRECORD
  5
302
102
{ACAD_REACTORS
330
301
102
}
330
301
100
AcDbXrecord
280
     1
102
RTVSPropertyOp0
 70
     1
102
RTVSPropertyOp1
 70
     1
102
RTVSPropertyOp2
 70
     1
102
RTVSPropertyOp3
 70
     1
102
RTVSPropertyOp4
 70
     1
102
RTVSPropertyOp5
 70
     1
102
RTVSPropertyOp6
 70
     1
102
RTVSPropertyOp7
 70
     1
102
RTVSPropertyOp8
 70
     1
102
RTVSPropertyOp9
 70
     1
102
RTVSPropertyOp10
 70
     1
102
RTVSPropertyOp11
 70
     1
102
RTVSPropertyOp12
 70
     1
102
RTVSPropertyOp13
 70
     1
102
RTVSPropertyOp14
 70
     1
102
RTVSPropertyOp15
 70
     1
102
RTVSPropertyOp16
 70
     1
102
RTVSPropertyOp17
 70
     1
102
RTVSPropertyOp18
 70
     1
102
RTVSPropertyOp19
 70
     1
102
RTVSPropertyOp20
 70
     1
102
RTVSPropertyOp21
 70
     1
102
RTVSPropertyOp22
 70
     1
102
RTVSPropertyOp23
 70
     1
102
RTVSPropertyOp24
 70
     1
102
RTVSPropertyOp25
 70
     1
102
RTVSPropertyOp26
 70
     1
102
RTVSPropertyOp27
 70
     1
102
RTVSPropertyOp28
 70
     1
102
RTVSPropertyOp29
 70
     1
102
RTVSPropertyOp30
 70
     1
102
RTVSPropertyOp31
 70
     1
102
RTVSPropertyOp32
 70
     1
102
RTVSPropertyOp33
 70
     1
102
RTVSPropertyOp34
 70
     1
102
RTVSPropertyOp35
 70
     1
102
RTVSPropertyOp36
 70
     1
102
RTVSPropertyOp37
 70
     1
102
RTVSPropertyOp38
 70
     1
102
RTVSPropertyOp39
 70
     1
102
RTVSPropertyOp40
 70
     1
102
RTVSPropertyOp41
 70
     1
102
RTVSPropertyOp42
 70
     1
102
RTVSPropertyOp43
 70
     1
102
RTVSPropertyOp44
 70
     1
102
RTVSPropertyOp45
 70
     1
102
RTVSPropertyOp46
 70
     1
102
RTVSPropertyOp47
 70
     1
102
RTVSPropertyOp48
 70
     1
102
RTVSPropertyOp49
 70
     1
102
RTVSPropertyOp50
 70
     1
102
RTVSPropertyOp51
 70
     0
102
RTVSPropertyOp52
 70
     0
102
RTVSPropertyOp53
 70
     1
102
RTVSPropertyOp54
 70
     1
102
RTVSPropertyOp55
 70
     1
102
RTVSPropertyOp56
 70
     1
102
RTVSPropertyOp57
 70
     1
102
RTVSPost2010Prop28
280
     1
102
RTVSPost2010PropOp28
 70
     1
102
RTVSPost2010Prop29
280
     1
102
RTVSPost2010PropOp29
 70
     1
102
RTVSPost2010Prop30
280
     0
102
RTVSPost2010PropOp30
 70
     1
102
RTVSPost2010Prop31
280
     0
102
RTVSPost2010PropOp31
 70
     1
102
RTVSPost2010Prop32
280
     0
102
RTVSPost2010PropOp32
 70
     1
102
RTVSPost2010Prop33
280
     0
102
RTVSPost2010PropOp33
 70
     1
102
RTVSPost2010Prop34
280
     0
102
RTVSPost2010PropOp34
 70
     1
102
RTVSPost2010Prop35
280
     0
102
RTVSPost2010PropOp35
 70
     1
102
RTVSPost2010Prop36
280
     0
102
RTVSPost2010PropOp36
 70
     1
102
RTVSPost2010Prop37
 90
       50
102
RTVSPost2010PropOp37
 70
     1
102
RTVSPost2010Prop38
140
0.0
102
RTVSPost2010PropOp38
 70
     1
102
RTVSPost2010Prop39
140
1.0
102
RTVSPost2010PropOp39
 70
     1
102
RTVSPost2010Prop40
 90
        0
102
RTVSPost2010PropOp40
 70
     1
102
RTVSPost2010Prop41ColorIndex
 90
       18
102
RTVSPost2010Prop41ColorRGB
 90
        0
102
RTVSPost2010PropOp41
 70
     1
102
RTVSPost2010Prop42
 90
       50
102
RTVSPost2010PropOp42
 70
     1
102
RTVSPost2010Prop43
 90
        3
102
RTVSPost2010PropOp43
 70
     1
102
RTVSPost2010Prop44ColorIndex
 90
        5
102
RTVSPost2010Prop44ColorRGB
 90
      255
102
RTVSPost2010PropOp44
 70
     1
102
RTVSPost2010Prop45
280
     0
102
RTVSPost2010PropOp45
 70
     1
102
RTVSPost2010Prop46
 90
       50
102
RTVSPost2010PropOp46
 70
     1
102
RTVSPost2010Prop47
 90
       50
102
RTVSPost2010PropOp47
 70
     1
102
RTVSPost2010Prop48
 90
       50
102
RTVSPost2010PropOp48
 70
     1
102
RTVSPost2010Prop49
280
     0
102
RTVSPost2010PropOp49
 70
     1
102
RTVSPost2010Prop50
 90
       50
102
RTVSPost2010PropOp50
 70
     1
102
RTVSPost2010Prop51ColorIndex
 90
      256
102
RTVSPost2010Prop51ColorRGB
 90
-16777216
102
RTVSPost2010PropOp51
 70
     0
102
RTVSPost2010Prop52
140
1.0
102
RTVSPost2010PropOp52
 70
     0
102
RTVSPost2010Prop53
 90
        2
102
RTVSPost2010PropOp53
 70
     1
102
RTVSPost2010Prop54
  1
strokes_ogs.tif
102
RTVSPost2010PropOp54
 70
     1
102
RTVSPost2010Prop55
280
     0
102
RTVSPost2010PropOp55
 70
     1
102
RTVSPost2010Prop56
140
1.0
102
RTVSPost2010PropOp56
 70
     1
102
RTVSPost2010Prop57
140
1.0
102
RTVSPost2010PropOp57
 70
     1
  0
XRECORD
  5
308
102
{ACAD_REACTORS
330
307
102
}
330
307
100
AcDbXrecord
280
     1
102
RTVSPropertyOp0
 70
     1
102
RTVSPropertyOp1
 70
     1
102
RTVSPropertyOp2
 70
     1
102
RTVSPropertyOp3
 70
     1
102
RTVSPropertyOp4
 70
     1
102
RTVSPropertyOp5
 70
     1
102
RTVSPropertyOp6
 70
     1
102
RTVSPropertyOp7
 70
     1
102
RTVSPropertyOp8
 70
     1
102
RTVSPropertyOp9
 70
     1
102
RTVSPropertyOp10
 70
     1
102
RTVSPropertyOp11
 70
     1
102
RTVSPropertyOp12
 70
     1
102
RTVSPropertyOp13
 70
     1
102
RTVSPropertyOp14
 70
     1
102
RTVSPropertyOp15
 70
     1
102
RTVSPropertyOp16
 70
     1
102
RTVSPropertyOp17
 70
     1
102
RTVSPropertyOp18
 70
     1
102
RTVSPropertyOp19
 70
     1
102
RTVSPropertyOp20
 70
     1
102
RTVSPropertyOp21
 70
     1
102
RTVSPropertyOp22
 70
     1
102
RTVSPropertyOp23
 70
     1
102
RTVSPropertyOp24
 70
     1
102
RTVSPropertyOp25
 70
     1
102
RTVSPropertyOp26
 70
     1
102
RTVSPropertyOp27
 70
     1
102
RTVSPropertyOp28
 70
     1
102
RTVSPropertyOp29
 70
     1
102
RTVSPropertyOp30
 70
     1
102
RTVSPropertyOp31
 70
     1
102
RTVSPropertyOp32
 70
     1
102
RTVSPropertyOp33
 70
     1
102
RTVSPropertyOp34
 70
     1
102
RTVSPropertyOp35
 70
     1
102
RTVSPropertyOp36
 70
     1
102
RTVSPropertyOp37
 70
     1
102
RTVSPropertyOp38
 70
     1
102
RTVSPropertyOp39
 70
     1
102
RTVSPropertyOp40
 70
     1
102
RTVSPropertyOp41
 70
     1
102
RTVSPropertyOp42
 70
     1
102
RTVSPropertyOp43
 70
     1
102
RTVSPropertyOp44
 70
     1
102
RTVSPropertyOp45
 70
     1
102
RTVSPropertyOp46
 70
     1
102
RTVSPropertyOp47
 70
     1
102
RTVSPropertyOp48
 70
     1
102
RTVSPropertyOp49
 70
     1
102
RTVSPropertyOp50
 70
     1
102
RTVSPropertyOp51
 70
     0
102
RTVSPropertyOp52
 70
     0
102
RTVSPropertyOp53
 70
     1
102
RTVSPropertyOp54
 70
     1
102
RTVSPropertyOp55
 70
     1
102
RTVSPropertyOp56
 70
     1
102
RTVSPropertyOp57
 70
     1
102
RTVSPost2010Prop28
280
     0
102
RTVSPost2010PropOp28
 70
     1
102
RTVSPost2010Prop29
280
     1
102
RTVSPost2010PropOp29
 70
     1
102
RTVSPost2010Prop30
280
     1
102
RTVSPost2010PropOp30
 70
     1
102
RTVSPost2010Prop31
280
     0
102
RTVSPost2010PropOp31
 70
     1
102
RTVSPost2010Prop32
280
     0
102
RTVSPost2010PropOp32
 70
     1
102
RTVSPost2010Prop33
280
     0
102
RTVSPost2010PropOp33
 70
     1
102
RTVSPost2010Prop34
280
     0
102
RTVSPost2010PropOp34
 70
     1
102
RTVSPost2010Prop35
280
     0
102
RTVSPost2010PropOp35
 70
     1
102
RTVSPost2010Prop36
280
     0
102
RTVSPost2010PropOp36
 70
     1
102
RTVSPost2010Prop37
 90
       50
102
RTVSPost2010PropOp37
 70
     1
102
RTVSPost2010Prop38
140
0.0
102
RTVSPost2010PropOp38
 70
     1
102
RTVSPost2010Prop39
140
1.0
102
RTVSPost2010PropOp39
 70
     1
102
RTVSPost2010Prop40
 90
        0
102
RTVSPost2010PropOp40
 70
     1
102
RTVSPost2010Prop41ColorIndex
 90
       18
102
RTVSPost2010Prop41ColorRGB
 90
        0
102
RTVSPost2010PropOp41
 70
     1
102
RTVSPost2010Prop42
 90
       50
102
RTVSPost2010PropOp42
 70
     1
102
RTVSPost2010Prop43
 90
        3
102
RTVSPost2010PropOp43
 70
     1
102
RTVSPost2010Prop44ColorIndex
 90
        5
102
RTVSPost2010Prop44ColorRGB
 90
      255
102
RTVSPost2010PropOp44
 70
     1
102
RTVSPost2010Prop45
280
     0
102
RTVSPost2010PropOp45
 70
     1
102
RTVSPost2010Prop46
 90
       50
102
RTVSPost2010PropOp46
 70
     1
102
RTVSPost2010Prop47
 90
       50
102
RTVSPost2010PropOp47
 70
     1
102
RTVSPost2010Prop48
 90
       50
102
RTVSPost2010PropOp48
 70
     1
102
RTVSPost2010Prop49
280
     0
102
RTVSPost2010PropOp49
 70
     1
102
RTVSPost2010Prop50
 90
       50
102
RTVSPost2010PropOp50
 70
     1
102
RTVSPost2010Prop51ColorIndex
 90
      256
102
RTVSPost2010Prop51ColorRGB
 90
-16777216
102
RTVSPost2010PropOp51
 70
     0
102
RTVSPost2010Prop52
140
1.0
102
RTVSPost2010PropOp52
 70
     0
102
RTVSPost2010Prop53
 90
        2
102
RTVSPost2010PropOp53
 70
     1
102
RTVSPost2010Prop54
  1
strokes_ogs.tif
102
RTVSPost2010PropOp54
 70
     1
102
RTVSPost2010Prop55
280
     0
102
RTVSPost2010PropOp55
 70
     1
102
RTVSPost2010Prop56
140
1.0
102
RTVSPost2010PropOp56
 70
     1
102
RTVSPost2010Prop57
140
1.0
102
RTVSPost2010PropOp57
 70
     1
  0
XRECORD
  5
310
102
{ACAD_REACTORS
330
30F
102
}
330
30F
100
AcDbXrecord
280
     1
102
RTVSPropertyOp0
 70
     1
102
RTVSPropertyOp1
 70
     1
102
RTVSPropertyOp2
 70
     1
102
RTVSPropertyOp3
 70
     1
102
RTVSPropertyOp4
 70
     1
102
RTVSPropertyOp5
 70
     1
102
RTVSPropertyOp6
 70
     1
102
RTVSPropertyOp7
 70
     1
102
RTVSPropertyOp8
 70
     1
102
RTVSPropertyOp9
 70
     1
102
RTVSPropertyOp10
 70
     1
102
RTVSPropertyOp11
 70
     1
102
RTVSPropertyOp12
 70
     1
102
RTVSPropertyOp13
 70
     1
102
RTVSPropertyOp14
 70
     1
102
RTVSPropertyOp15
 70
     1
102
RTVSPropertyOp16
 70
     1
102
RTVSPropertyOp17
 70
     1
102
RTVSPropertyOp18
 70
     1
102
RTVSPropertyOp19
 70
     1
102
RTVSPropertyOp20
 70
     1
102
RTVSPropertyOp21
 70
     1
102
RTVSPropertyOp22
 70
     1
102
RTVSPropertyOp23
 70
     1
102
RTVSPropertyOp24
 70
     1
102
RTVSPropertyOp25
 70
     1
102
RTVSPropertyOp26
 70
     1
102
RTVSPropertyOp27
 70
     1
102
RTVSPropertyOp28
 70
     1
102
RTVSPropertyOp29
 70
     1
102
RTVSPropertyOp30
 70
     1
102
RTVSPropertyOp31
 70
     1
102
RTVSPropertyOp32
 70
     1
102
RTVSPropertyOp33
 70
     1
102
RTVSPropertyOp34
 70
     1
102
RTVSPropertyOp35
 70
     1
102
RTVSPropertyOp36
 70
     1
102
RTVSPropertyOp37
 70
     1
102
RTVSPropertyOp38
 70
     1
102
RTVSPropertyOp39
 70
     1
102
RTVSPropertyOp40
 70
     1
102
RTVSPropertyOp41
 70
     1
102
RTVSPropertyOp42
 70
     1
102
RTVSPropertyOp43
 70
     1
102
RTVSPropertyOp44
 70
     1
102
RTVSPropertyOp45
 70
     1
102
RTVSPropertyOp46
 70
     1
102
RTVSPropertyOp47
 70
     1
102
RTVSPropertyOp48
 70
     1
102
RTVSPropertyOp49
 70
     1
102
RTVSPropertyOp50
 70
     1
102
RTVSPropertyOp51
 70
     0
102
RTVSPropertyOp52
 70
     0
102
RTVSPropertyOp53
 70
     1
102
RTVSPropertyOp54
 70
     1
102
RTVSPropertyOp55
 70
     1
102
RTVSPropertyOp56
 70
     1
102
RTVSPropertyOp57
 70
     1
102
RTVSPost2010Prop28
280
     0
102
RTVSPost2010PropOp28
 70
     1
102
RTVSPost2010Prop29
280
     1
102
RTVSPost2010PropOp29
 70
     1
102
RTVSPost2010Prop30
280
     1
102
RTVSPost2010PropOp30
 70
     1
102
RTVSPost2010Prop31
280
     0
102
RTVSPost2010PropOp31
 70
     1
102
RTVSPost2010Prop32
280
     0
102
RTVSPost2010PropOp32
 70
     1
102
RTVSPost2010Prop33
280
     0
102
RTVSPost2010PropOp33
 70
     1
102
RTVSPost2010Prop34
280
     0
102
RTVSPost2010PropOp34
 70
     1
102
RTVSPost2010Prop35
280
     0
102
RTVSPost2010PropOp35
 70
     1
102
RTVSPost2010Prop36
280
     0
102
RTVSPost2010PropOp36
 70
     1
102
RTVSPost2010Prop37
 90
       50
102
RTVSPost2010PropOp37
 70
     1
102
RTVSPost2010Prop38
140
0.0
102
RTVSPost2010PropOp38
 70
     1
102
RTVSPost2010Prop39
140
1.0
102
RTVSPost2010PropOp39
 70
     1
102
RTVSPost2010Prop40
 90
        0
102
RTVSPost2010PropOp40
 70
     1
102
RTVSPost2010Prop41ColorIndex
 90
       18
102
RTVSPost2010Prop41ColorRGB
 90
        0
102
RTVSPost2010PropOp41
 70
     1
102
RTVSPost2010Prop42
 90
       50
102
RTVSPost2010PropOp42
 70
     1
102
RTVSPost2010Prop43
 90
        3
102
RTVSPost2010PropOp43
 70
     1
102
RTVSPost2010Prop44ColorIndex
 90
        5
102
RTVSPost2010Prop44ColorRGB
 90
      255
102
RTVSPost2010PropOp44
 70
     1
102
RTVSPost2010Prop45
280
     0
102
RTVSPost2010PropOp45
 70
     1
102
RTVSPost2010Prop46
 90
       50
102
RTVSPost2010PropOp46
 70
     1
102
RTVSPost2010Prop47
 90
       50
102
RTVSPost2010PropOp47
 70
     1
102
RTVSPost2010Prop48
 90
       50
102
RTVSPost2010PropOp48
 70
     1
102
RTVSPost2010Prop49
280
     0
102
RTVSPost2010PropOp49
 70
     1
102
RTVSPost2010Prop50
 90
       50
102
RTVSPost2010PropOp50
 70
     1
102
RTVSPost2010Prop51ColorIndex
 90
      256
102
RTVSPost2010Prop51ColorRGB
 90
-16777216
102
RTVSPost2010PropOp51
 70
     0
102
RTVSPost2010Prop52
140
1.0
102
RTVSPost2010PropOp52
 70
     0
102
RTVSPost2010Prop53
 90
        2
102
RTVSPost2010PropOp53
 70
     1
102
RTVSPost2010Prop54
  1
strokes_ogs.tif
102
RTVSPost2010PropOp54
 70
     1
102
RTVSPost2010Prop55
280
     0
102
RTVSPost2010PropOp55
 70
     1
102
RTVSPost2010Prop56
140
1.0
102
RTVSPost2010PropOp56
 70
     1
102
RTVSPost2010Prop57
140
1.0
102
RTVSPost2010PropOp57
 70
     1
  0
XRECORD
  5
318
102
{ACAD_REACTORS
330
317
102
}
330
317
100
AcDbXrecord
280
     1
102
RTVSPropertyOp0
 70
     1
102
RTVSPropertyOp1
 70
     1
102
RTVSPropertyOp2
 70
     1
102
RTVSPropertyOp3
 70
     1
102
RTVSPropertyOp4
 70
     1
102
RTVSPropertyOp5
 70
     1
102
RTVSPropertyOp6
 70
     1
102
RTVSPropertyOp7
 70
     1
102
RTVSPropertyOp8
 70
     1
102
RTVSPropertyOp9
 70
     1
102
RTVSPropertyOp10
 70
     1
102
RTVSPropertyOp11
 70
     1
102
RTVSPropertyOp12
 70
     1
102
RTVSPropertyOp13
 70
     1
102
RTVSPropertyOp14
 70
     1
102
RTVSPropertyOp15
 70
     1
102
RTVSPropertyOp16
 70
     1
102
RTVSPropertyOp17
 70
     1
102
RTVSPropertyOp18
 70
     1
102
RTVSPropertyOp19
 70
     1
102
RTVSPropertyOp20
 70
     1
102
RTVSPropertyOp21
 70
     1
102
RTVSPropertyOp22
 70
     1
102
RTVSPropertyOp23
 70
     1
102
RTVSPropertyOp24
 70
     1
102
RTVSPropertyOp25
 70
     1
102
RTVSPropertyOp26
 70
     1
102
RTVSPropertyOp27
 70
     1
102
RTVSPropertyOp28
 70
     1
102
RTVSPropertyOp29
 70
     1
102
RTVSPropertyOp30
 70
     1
102
RTVSPropertyOp31
 70
     1
102
RTVSPropertyOp32
 70
     1
102
RTVSPropertyOp33
 70
     1
102
RTVSPropertyOp34
 70
     1
102
RTVSPropertyOp35
 70
     1
102
RTVSPropertyOp36
 70
     1
102
RTVSPropertyOp37
 70
     1
102
RTVSPropertyOp38
 70
     1
102
RTVSPropertyOp39
 70
     1
102
RTVSPropertyOp40
 70
     1
102
RTVSPropertyOp41
 70
     1
102
RTVSPropertyOp42
 70
     1
102
RTVSPropertyOp43
 70
     1
102
RTVSPropertyOp44
 70
     1
102
RTVSPropertyOp45
 70
     1
102
RTVSPropertyOp46
 70
     1
102
RTVSPropertyOp47
 70
     1
102
RTVSPropertyOp48
 70
     1
102
RTVSPropertyOp49
 70
     1
102
RTVSPropertyOp50
 70
     1
102
RTVSPropertyOp51
 70
     0
102
RTVSPropertyOp52
 70
     0
102
RTVSPropertyOp53
 70
     1
102
RTVSPropertyOp54
 70
     1
102
RTVSPropertyOp55
 70
     1
102
RTVSPropertyOp56
 70
     1
102
RTVSPropertyOp57
 70
     1
102
RTVSPost2010Prop28
280
     0
102
RTVSPost2010PropOp28
 70
     1
102
RTVSPost2010Prop29
280
     1
102
RTVSPost2010PropOp29
 70
     1
102
RTVSPost2010Prop30
280
     1
102
RTVSPost2010PropOp30
 70
     1
102
RTVSPost2010Prop31
280
     0
102
RTVSPost2010PropOp31
 70
     1
102
RTVSPost2010Prop32
280
     0
102
RTVSPost2010PropOp32
 70
     1
102
RTVSPost2010Prop33
280
     0
102
RTVSPost2010PropOp33
 70
     1
102
RTVSPost2010Prop34
280
     0
102
RTVSPost2010PropOp34
 70
     1
102
RTVSPost2010Prop35
280
     0
102
RTVSPost2010PropOp35
 70
     1
102
RTVSPost2010Prop36
280
     0
102
RTVSPost2010PropOp36
 70
     1
102
RTVSPost2010Prop37
 90
       50
102
RTVSPost2010PropOp37
 70
     1
102
RTVSPost2010Prop38
140
0.0
102
RTVSPost2010PropOp38
 70
     1
102
RTVSPost2010Prop39
140
1.0
102
RTVSPost2010PropOp39
 70
     1
102
RTVSPost2010Prop40
 90
        0
102
RTVSPost2010PropOp40
 70
     1
102
RTVSPost2010Prop41ColorIndex
 90
       18
102
RTVSPost2010Prop41ColorRGB
 90
        0
102
RTVSPost2010PropOp41
 70
     1
102
RTVSPost2010Prop42
 90
       50
102
RTVSPost2010PropOp42
 70
     1
102
RTVSPost2010Prop43
 90
        3
102
RTVSPost2010PropOp43
 70
     1
102
RTVSPost2010Prop44ColorIndex
 90
        5
102
RTVSPost2010Prop44ColorRGB
 90
      255
102
RTVSPost2010PropOp44
 70
     1
102
RTVSPost2010Prop45
280
     0
102
RTVSPost2010PropOp45
 70
     1
102
RTVSPost2010Prop46
 90
       50
102
RTVSPost2010PropOp46
 70
     1
102
RTVSPost2010Prop47
 90
       50
102
RTVSPost2010PropOp47
 70
     1
102
RTVSPost2010Prop48
 90
       50
102
RTVSPost2010PropOp48
 70
     1
102
RTVSPost2010Prop49
280
     0
102
RTVSPost2010PropOp49
 70
     1
102
RTVSPost2010Prop50
 90
       50
102
RTVSPost2010PropOp50
 70
     1
102
RTVSPost2010Prop51ColorIndex
 90
      256
102
RTVSPost2010Prop51ColorRGB
 90
-16777216
102
RTVSPost2010PropOp51
 70
     0
102
RTVSPost2010Prop52
140
1.0
102
RTVSPost2010PropOp52
 70
     0
102
RTVSPost2010Prop53
 90
        2
102
RTVSPost2010PropOp53
 70
     1
102
RTVSPost2010Prop54
  1
strokes_ogs.tif
102
RTVSPost2010PropOp54
 70
     1
102
RTVSPost2010Prop55
280
     0
102
RTVSPost2010PropOp55
 70
     1
102
RTVSPost2010Prop56
140
1.0
102
RTVSPost2010PropOp56
 70
     1
102
RTVSPost2010Prop57
140
1.0
102
RTVSPost2010PropOp57
 70
     1
  0
XRECORD
  5
30C
102
{ACAD_REACTORS
330
30B
102
}
330
30B
100
AcDbXrecord
280
     1
102
RTVSPropertyOp0
 70
     1
102
RTVSPropertyOp1
 70
     1
102
RTVSPropertyOp2
 70
     1
102
RTVSPropertyOp3
 70
     1
102
RTVSPropertyOp4
 70
     1
102
RTVSPropertyOp5
 70
     1
102
RTVSPropertyOp6
 70
     1
102
RTVSPropertyOp7
 70
     1
102
RTVSPropertyOp8
 70
     1
102
RTVSPropertyOp9
 70
     1
102
RTVSPropertyOp10
 70
     1
102
RTVSPropertyOp11
 70
     1
102
RTVSPropertyOp12
 70
     1
102
RTVSPropertyOp13
 70
     1
102
RTVSPropertyOp14
 70
     1
102
RTVSPropertyOp15
 70
     1
102
RTVSPropertyOp16
 70
     1
102
RTVSPropertyOp17
 70
     1
102
RTVSPropertyOp18
 70
     1
102
RTVSPropertyOp19
 70
     1
102
RTVSPropertyOp20
 70
     1
102
RTVSPropertyOp21
 70
     1
102
RTVSPropertyOp22
 70
     1
102
RTVSPropertyOp23
 70
     1
102
RTVSPropertyOp24
 70
     1
102
RTVSPropertyOp25
 70
     1
102
RTVSPropertyOp26
 70
     1
102
RTVSPropertyOp27
 70
     1
102
RTVSPropertyOp28
 70
     1
102
RTVSPropertyOp29
 70
     1
102
RTVSPropertyOp30
 70
     1
102
RTVSPropertyOp31
 70
     1
102
RTVSPropertyOp32
 70
     1
102
RTVSPropertyOp33
 70
     1
102
RTVSPropertyOp34
 70
     1
102
RTVSPropertyOp35
 70
     1
102
RTVSPropertyOp36
 70
     1
102
RTVSPropertyOp37
 70
     1
102
RTVSPropertyOp38
 70
     1
102
RTVSPropertyOp39
 70
     1
102
RTVSPropertyOp40
 70
     1
102
RTVSPropertyOp41
 70
     1
102
RTVSPropertyOp42
 70
     1
102
RTVSPropertyOp43
 70
     1
102
RTVSPropertyOp44
 70
     1
102
RTVSPropertyOp45
 70
     1
102
RTVSPropertyOp46
 70
     1
102
RTVSPropertyOp47
 70
     1
102
RTVSPropertyOp48
 70
     1
102
RTVSPropertyOp49
 70
     1
102
RTVSPropertyOp50
 70
     1
102
RTVSPropertyOp51
 70
     0
102
RTVSPropertyOp52
 70
     0
102
RTVSPropertyOp53
 70
     1
102
RTVSPropertyOp54
 70
     1
102
RTVSPropertyOp55
 70
     1
102
RTVSPropertyOp56
 70
     1
102
RTVSPropertyOp57
 70
     1
102
RTVSPost2010Prop28
280
     0
102
RTVSPost2010PropOp28
 70
     1
102
RTVSPost2010Prop29
280
     1
102
RTVSPost2010PropOp29
 70
     1
102
RTVSPost2010Prop30
280
     1
102
RTVSPost2010PropOp30
 70
     1
102
RTVSPost2010Prop31
280
     0
102
RTVSPost2010PropOp31
 70
     1
102
RTVSPost2010Prop32
280
     0
102
RTVSPost2010PropOp32
 70
     1
102
RTVSPost2010Prop33
280
     0
102
RTVSPost2010PropOp33
 70
     1
102
RTVSPost2010Prop34
280
     0
102
RTVSPost2010PropOp34
 70
     1
102
RTVSPost2010Prop35
280
     0
102
RTVSPost2010PropOp35
 70
     1
102
RTVSPost2010Prop36
280
     0
102
RTVSPost2010PropOp36
 70
     1
102
RTVSPost2010Prop37
 90
       50
102
RTVSPost2010PropOp37
 70
     1
102
RTVSPost2010Prop38
140
0.0
102
RTVSPost2010PropOp38
 70
     1
102
RTVSPost2010Prop39
140
1.0
102
RTVSPost2010PropOp39
 70
     1
102
RTVSPost2010Prop40
 90
        0
102
RTVSPost2010PropOp40
 70
     1
102
RTVSPost2010Prop41ColorIndex
 90
       18
102
RTVSPost2010Prop41ColorRGB
 90
        0
102
RTVSPost2010PropOp41
 70
     1
102
RTVSPost2010Prop42
 90
       50
102
RTVSPost2010PropOp42
 70
     1
102
RTVSPost2010Prop43
 90
        3
102
RTVSPost2010PropOp43
 70
     1
102
RTVSPost2010Prop44ColorIndex
 90
        5
102
RTVSPost2010Prop44ColorRGB
 90
      255
102
RTVSPost2010PropOp44
 70
     1
102
RTVSPost2010Prop45
280
     0
102
RTVSPost2010PropOp45
 70
     1
102
RTVSPost2010Prop46
 90
       50
102
RTVSPost2010PropOp46
 70
     1
102
RTVSPost2010Prop47
 90
       50
102
RTVSPost2010PropOp47
 70
     1
102
RTVSPost2010Prop48
 90
       50
102
RTVSPost2010PropOp48
 70
     1
102
RTVSPost2010Prop49
280
     0
102
RTVSPost2010PropOp49
 70
     1
102
RTVSPost2010Prop50
 90
       50
102
RTVSPost2010PropOp50
 70
     1
102
RTVSPost2010Prop51ColorIndex
 90
      256
102
RTVSPost2010Prop51ColorRGB
 90
-16777216
102
RTVSPost2010PropOp51
 70
     0
102
RTVSPost2010Prop52
140
1.0
102
RTVSPost2010PropOp52
 70
     0
102
RTVSPost2010Prop53
 90
        2
102
RTVSPost2010PropOp53
 70
     1
102
RTVSPost2010Prop54
  1
strokes_ogs.tif
102
RTVSPost2010PropOp54
 70
     1
102
RTVSPost2010Prop55
280
     0
102
RTVSPost2010PropOp55
 70
     1
102
RTVSPost2010Prop56
140
1.0
102
RTVSPost2010PropOp56
 70
     1
102
RTVSPost2010Prop57
140
1.0
102
RTVSPost2010PropOp57
 70
     1
  0
XRECORD
  5
30E
102
{ACAD_REACTORS
330
30D
102
}
330
30D
100
AcDbXrecord
280
     1
102
RTVSPropertyOp0
 70
     1
102
RTVSPropertyOp1
 70
     1
102
RTVSPropertyOp2
 70
     1
102
RTVSPropertyOp3
 70
     1
102
RTVSPropertyOp4
 70
     1
102
RTVSPropertyOp5
 70
     1
102
RTVSPropertyOp6
 70
     1
102
RTVSPropertyOp7
 70
     1
102
RTVSPropertyOp8
 70
     1
102
RTVSPropertyOp9
 70
     1
102
RTVSPropertyOp10
 70
     1
102
RTVSPropertyOp11
 70
     1
102
RTVSPropertyOp12
 70
     1
102
RTVSPropertyOp13
 70
     1
102
RTVSPropertyOp14
 70
     1
102
RTVSPropertyOp15
 70
     1
102
RTVSPropertyOp16
 70
     1
102
RTVSPropertyOp17
 70
     1
102
RTVSPropertyOp18
 70
     1
102
RTVSPropertyOp19
 70
     1
102
RTVSPropertyOp20
 70
     1
102
RTVSPropertyOp21
 70
     1
102
RTVSPropertyOp22
 70
     1
102
RTVSPropertyOp23
 70
     1
102
RTVSPropertyOp24
 70
     1
102
RTVSPropertyOp25
 70
     1
102
RTVSPropertyOp26
 70
     1
102
RTVSPropertyOp27
 70
     1
102
RTVSPropertyOp28
 70
     1
102
RTVSPropertyOp29
 70
     1
102
RTVSPropertyOp30
 70
     1
102
RTVSPropertyOp31
 70
     1
102
RTVSPropertyOp32
 70
     1
102
RTVSPropertyOp33
 70
     1
102
RTVSPropertyOp34
 70
     1
102
RTVSPropertyOp35
 70
     1
102
RTVSPropertyOp36
 70
     1
102
RTVSPropertyOp37
 70
     1
102
RTVSPropertyOp38
 70
     1
102
RTVSPropertyOp39
 70
     1
102
RTVSPropertyOp40
 70
     1
102
RTVSPropertyOp41
 70
     1
102
RTVSPropertyOp42
 70
     1
102
RTVSPropertyOp43
 70
     1
102
RTVSPropertyOp44
 70
     1
102
RTVSPropertyOp45
 70
     1
102
RTVSPropertyOp46
 70
     1
102
RTVSPropertyOp47
 70
     1
102
RTVSPropertyOp48
 70
     1
102
RTVSPropertyOp49
 70
     1
102
RTVSPropertyOp50
 70
     1
102
RTVSPropertyOp51
 70
     0
102
RTVSPropertyOp52
 70
     0
102
RTVSPropertyOp53
 70
     1
102
RTVSPropertyOp54
 70
     1
102
RTVSPropertyOp55
 70
     1
102
RTVSPropertyOp56
 70
     1
102
RTVSPropertyOp57
 70
     1
102
RTVSPost2010Prop28
280
     0
102
RTVSPost2010PropOp28
 70
     1
102
RTVSPost2010Prop29
280
     1
102
RTVSPost2010PropOp29
 70
     1
102
RTVSPost2010Prop30
280
     1
102
RTVSPost2010PropOp30
 70
     1
102
RTVSPost2010Prop31
280
     0
102
RTVSPost2010PropOp31
 70
     1
102
RTVSPost2010Prop32
280
     0
102
RTVSPost2010PropOp32
 70
     1
102
RTVSPost2010Prop33
280
     0
102
RTVSPost2010PropOp33
 70
     1
102
RTVSPost2010Prop34
280
     0
102
RTVSPost2010PropOp34
 70
     1
102
RTVSPost2010Prop35
280
     0
102
RTVSPost2010PropOp35
 70
     1
102
RTVSPost2010Prop36
280
     0
102
RTVSPost2010PropOp36
 70
     1
102
RTVSPost2010Prop37
 90
       50
102
RTVSPost2010PropOp37
 70
     1
102
RTVSPost2010Prop38
140
0.0
102
RTVSPost2010PropOp38
 70
     1
102
RTVSPost2010Prop39
140
1.0
102
RTVSPost2010PropOp39
 70
     1
102
RTVSPost2010Prop40
 90
        0
102
RTVSPost2010PropOp40
 70
     1
102
RTVSPost2010Prop41ColorIndex
 90
       18
102
RTVSPost2010Prop41ColorRGB
 90
        0
102
RTVSPost2010PropOp41
 70
     1
102
RTVSPost2010Prop42
 90
       50
102
RTVSPost2010PropOp42
 70
     1
102
RTVSPost2010Prop43
 90
        3
102
RTVSPost2010PropOp43
 70
     1
102
RTVSPost2010Prop44ColorIndex
 90
        5
102
RTVSPost2010Prop44ColorRGB
 90
      255
102
RTVSPost2010PropOp44
 70
     1
102
RTVSPost2010Prop45
280
     0
102
RTVSPost2010PropOp45
 70
     1
102
RTVSPost2010Prop46
 90
       50
102
RTVSPost2010PropOp46
 70
     1
102
RTVSPost2010Prop47
 90
       50
102
RTVSPost2010PropOp47
 70
     1
102
RTVSPost2010Prop48
 90
       50
102
RTVSPost2010PropOp48
 70
     1
102
RTVSPost2010Prop49
280
     0
102
RTVSPost2010PropOp49
 70
     1
102
RTVSPost2010Prop50
 90
       50
102
RTVSPost2010PropOp50
 70
     1
102
RTVSPost2010Prop51ColorIndex
 90
      256
102
RTVSPost2010Prop51ColorRGB
 90
-16777216
102
RTVSPost2010PropOp51
 70
     0
102
RTVSPost2010Prop52
140
1.0
102
RTVSPost2010PropOp52
 70
     0
102
RTVSPost2010Prop53
 90
        2
102
RTVSPost2010PropOp53
 70
     1
102
RTVSPost2010Prop54
  1
strokes_ogs.tif
102
RTVSPost2010PropOp54
 70
     1
102
RTVSPost2010Prop55
280
     0
102
RTVSPost2010PropOp55
 70
     1
102
RTVSPost2010Prop56
140
1.0
102
RTVSPost2010PropOp56
 70
     1
102
RTVSPost2010Prop57
140
1.0
102
RTVSPost2010PropOp57
 70
     1
  0
XRECORD
  5
31E
102
{ACAD_REACTORS
330
31D
102
}
330
31D
100
AcDbXrecord
280
     1
102
RTVSPropertyOp0
 70
     0
102
RTVSPropertyOp1
 70
     0
102
RTVSPropertyOp2
 70
     0
102
RTVSPropertyOp3
 70
     0
102
RTVSPropertyOp4
 70
     0
102
RTVSPropertyOp5
 70
     0
102
RTVSPropertyOp6
 70
     0
102
RTVSPropertyOp7
 70
     0
102
RTVSPropertyOp8
 70
     0
102
RTVSPropertyOp9
 70
     0
102
RTVSPropertyOp10
 70
     0
102
RTVSPropertyOp11
 70
     0
102
RTVSPropertyOp12
 70
     0
102
RTVSPropertyOp13
 70
     0
102
RTVSPropertyOp14
 70
     2
102
RTVSPropertyOp15
 70
     0
102
RTVSPropertyOp16
 70
     0
102
RTVSPropertyOp17
 70
     0
102
RTVSPropertyOp18
 70
     0
102
RTVSPropertyOp19
 70
     0
102
RTVSPropertyOp20
 70
     0
102
RTVSPropertyOp21
 70
     0
102
RTVSPropertyOp22
 70
     0
102
RTVSPropertyOp23
 70
     0
102
RTVSPropertyOp24
 70
     0
102
RTVSPropertyOp25
 70
     0
102
RTVSPropertyOp26
 70
     0
102
RTVSPropertyOp27
 70
     0
102
RTVSPropertyOp28
 70
     0
102
RTVSPropertyOp29
 70
     0
102
RTVSPropertyOp30
 70
     0
102
RTVSPropertyOp31
 70
     0
102
RTVSPropertyOp32
 70
     0
102
RTVSPropertyOp33
 70
     0
102
RTVSPropertyOp34
 70
     0
102
RTVSPropertyOp35
 70
     0
102
RTVSPropertyOp36
 70
     0
102
RTVSPropertyOp37
 70
     0
102
RTVSPropertyOp38
 70
     0
102
RTVSPropertyOp39
 70
     0
102
RTVSPropertyOp40
 70
     0
102
RTVSPropertyOp41
 70
     0
102
RTVSPropertyOp42
 70
     0
102
RTVSPropertyOp43
 70
     0
102
RTVSPropertyOp44
 70
     0
102
RTVSPropertyOp45
 70
     0
102
RTVSPropertyOp46
 70
     0
102
RTVSPropertyOp47
 70
     0
102
RTVSPropertyOp48
 70
     0
102
RTVSPropertyOp49
 70
     0
102
RTVSPropertyOp50
 70
     0
102
RTVSPropertyOp51
 70
     0
102
RTVSPropertyOp52
 70
     0
102
RTVSPropertyOp53
 70
     0
102
RTVSPropertyOp54
 70
     0
102
RTVSPropertyOp55
 70
     0
102
RTVSPropertyOp56
 70
     0
102
RTVSPropertyOp57
 70
     0
102
RTVSPost2010Prop28
280
     0
102
RTVSPost2010PropOp28
 70
     0
102
RTVSPost2010Prop29
280
     1
102
RTVSPost2010PropOp29
 70
     0
102
RTVSPost2010Prop30
280
     1
102
RTVSPost2010PropOp30
 70
     0
102
RTVSPost2010Prop31
280
     0
102
RTVSPost2010PropOp31
 70
     0
102
RTVSPost2010Prop32
280
     0
102
RTVSPost2010PropOp32
 70
     0
102
RTVSPost2010Prop33
280
     0
102
RTVSPost2010PropOp33
 70
     0
102
RTVSPost2010Prop34
280
     0
102
RTVSPost2010PropOp34
 70
     0
102
RTVSPost2010Prop35
280
     0
102
RTVSPost2010PropOp35
 70
     0
102
RTVSPost2010Prop36
280
     0
102
RTVSPost2010PropOp36
 70
     0
102
RTVSPost2010Prop37
 90
       50
102
RTVSPost2010PropOp37
 70
     0
102
RTVSPost2010Prop38
140
0.0
102
RTVSPost2010PropOp38
 70
     0
102
RTVSPost2010Prop39
140
1.0
102
RTVSPost2010PropOp39
 70
     0
102
RTVSPost2010Prop40
 90
        0
102
RTVSPost2010PropOp40
 70
     0
102
RTVSPost2010Prop41ColorIndex
 90
       18
102
RTVSPost2010Prop41ColorRGB
 90
        0
102
RTVSPost2010PropOp41
 70
     0
102
RTVSPost2010Prop42
 90
       50
102
RTVSPost2010PropOp42
 70
     0
102
RTVSPost2010Prop43
 90
        3
102
RTVSPost2010PropOp43
 70
     0
102
RTVSPost2010Prop44ColorIndex
 90
        5
102
RTVSPost2010Prop44ColorRGB
 90
      255
102
RTVSPost2010PropOp44
 70
     0
102
RTVSPost2010Prop45
280
     0
102
RTVSPost2010PropOp45
 70
     0
102
RTVSPost2010Prop46
 90
       50
102
RTVSPost2010PropOp46
 70
     0
102
RTVSPost2010Prop47
 90
       50
102
RTVSPost2010PropOp47
 70
     0
102
RTVSPost2010Prop48
 90
       50
102
RTVSPost2010PropOp48
 70
     0
102
RTVSPost2010Prop49
280
     0
102
RTVSPost2010PropOp49
 70
     0
102
RTVSPost2010Prop50
 90
       50
102
RTVSPost2010PropOp50
 70
     0
102
RTVSPost2010Prop51ColorIndex
 90
      256
102
RTVSPost2010Prop51ColorRGB
 90
-16777216
102
RTVSPost2010PropOp51
 70
     0
102
RTVSPost2010Prop52
140
1.0
102
RTVSPost2010PropOp52
 70
     0
102
RTVSPost2010Prop53
 90
        2
102
RTVSPost2010PropOp53
 70
     0
102
RTVSPost2010Prop54
  1
strokes_ogs.tif
102
RTVSPost2010PropOp54
 70
     0
102
RTVSPost2010Prop55
280
     0
102
RTVSPost2010PropOp55
 70
     0
102
RTVSPost2010Prop56
140
1.0
102
RTVSPost2010PropOp56
 70
     0
102
RTVSPost2010Prop57
140
1.0
102
RTVSPost2010PropOp57
 70
     0
  0
XRECORD
  5
316
102
{ACAD_REACTORS
330
315
102
}
330
315
100
AcDbXrecord
280
     1
102
RTVSPropertyOp0
 70
     1
102
RTVSPropertyOp1
 70
     1
102
RTVSPropertyOp2
 70
     1
102
RTVSPropertyOp3
 70
     1
102
RTVSPropertyOp4
 70
     1
102
RTVSPropertyOp5
 70
     1
102
RTVSPropertyOp6
 70
     1
102
RTVSPropertyOp7
 70
     1
102
RTVSPropertyOp8
 70
     1
102
RTVSPropertyOp9
 70
     1
102
RTVSPropertyOp10
 70
     1
102
RTVSPropertyOp11
 70
     1
102
RTVSPropertyOp12
 70
     1
102
RTVSPropertyOp13
 70
     1
102
RTVSPropertyOp14
 70
     1
102
RTVSPropertyOp15
 70
     1
102
RTVSPropertyOp16
 70
     1
102
RTVSPropertyOp17
 70
     1
102
RTVSPropertyOp18
 70
     1
102
RTVSPropertyOp19
 70
     1
102
RTVSPropertyOp20
 70
     1
102
RTVSPropertyOp21
 70
     1
102
RTVSPropertyOp22
 70
     1
102
RTVSPropertyOp23
 70
     1
102
RTVSPropertyOp24
 70
     1
102
RTVSPropertyOp25
 70
     1
102
RTVSPropertyOp26
 70
     1
102
RTVSPropertyOp27
 70
     1
102
RTVSPropertyOp28
 70
     1
102
RTVSPropertyOp29
 70
     1
102
RTVSPropertyOp30
 70
     1
102
RTVSPropertyOp31
 70
     1
102
RTVSPropertyOp32
 70
     1
102
RTVSPropertyOp33
 70
     1
102
RTVSPropertyOp34
 70
     1
102
RTVSPropertyOp35
 70
     1
102
RTVSPropertyOp36
 70
     1
102
RTVSPropertyOp37
 70
     1
102
RTVSPropertyOp38
 70
     1
102
RTVSPropertyOp39
 70
     1
102
RTVSPropertyOp40
 70
     1
102
RTVSPropertyOp41
 70
     1
102
RTVSPropertyOp42
 70
     1
102
RTVSPropertyOp43
 70
     1
102
RTVSPropertyOp44
 70
     1
102
RTVSPropertyOp45
 70
     1
102
RTVSPropertyOp46
 70
     1
102
RTVSPropertyOp47
 70
     1
102
RTVSPropertyOp48
 70
     1
102
RTVSPropertyOp49
 70
     1
102
RTVSPropertyOp50
 70
     1
102
RTVSPropertyOp51
 70
     0
102
RTVSPropertyOp52
 70
     0
102
RTVSPropertyOp53
 70
     1
102
RTVSPropertyOp54
 70
     1
102
RTVSPropertyOp55
 70
     1
102
RTVSPropertyOp56
 70
     1
102
RTVSPropertyOp57
 70
     1
102
RTVSPost2010Prop28
280
     0
102
RTVSPost2010PropOp28
 70
     1
102
RTVSPost2010Prop29
280
     1
102
RTVSPost2010PropOp29
 70
     1
102
RTVSPost2010Prop30
280
     1
102
RTVSPost2010PropOp30
 70
     1
102
RTVSPost2010Prop31
280
     0
102
RTVSPost2010PropOp31
 70
     1
102
RTVSPost2010Prop32
280
     0
102
RTVSPost2010PropOp32
 70
     1
102
RTVSPost2010Prop33
280
     0
102
RTVSPost2010PropOp33
 70
     1
102
RTVSPost2010Prop34
280
     0
102
RTVSPost2010PropOp34
 70
     1
102
RTVSPost2010Prop35
280
     0
102
RTVSPost2010PropOp35
 70
     1
102
RTVSPost2010Prop36
280
     0
102
RTVSPost2010PropOp36
 70
     1
102
RTVSPost2010Prop37
 90
       50
102
RTVSPost2010PropOp37
 70
     1
102
RTVSPost2010Prop38
140
0.0
102
RTVSPost2010PropOp38
 70
     1
102
RTVSPost2010Prop39
140
1.0
102
RTVSPost2010PropOp39
 70
     1
102
RTVSPost2010Prop40
 90
        0
102
RTVSPost2010PropOp40
 70
     1
102
RTVSPost2010Prop41ColorIndex
 90
       18
102
RTVSPost2010Prop41ColorRGB
 90
        0
102
RTVSPost2010PropOp41
 70
     1
102
RTVSPost2010Prop42
 90
       50
102
RTVSPost2010PropOp42
 70
     1
102
RTVSPost2010Prop43
 90
        3
102
RTVSPost2010PropOp43
 70
     1
102
RTVSPost2010Prop44ColorIndex
 90
        5
102
RTVSPost2010Prop44ColorRGB
 90
      255
102
RTVSPost2010PropOp44
 70
     1
102
RTVSPost2010Prop45
280
     0
102
RTVSPost2010PropOp45
 70
     1
102
RTVSPost2010Prop46
 90
       50
102
RTVSPost2010PropOp46
 70
     1
102
RTVSPost2010Prop47
 90
       50
102
RTVSPost2010PropOp47
 70
     1
102
RTVSPost2010Prop48
 90
       50
102
RTVSPost2010PropOp48
 70
     1
102
RTVSPost2010Prop49
280
     0
102
RTVSPost2010PropOp49
 70
     1
102
RTVSPost2010Prop50
 90
       50
102
RTVSPost2010PropOp50
 70
     1
102
RTVSPost2010Prop51ColorIndex
 90
      256
102
RTVSPost2010Prop51ColorRGB
 90
-16777216
102
RTVSPost2010PropOp51
 70
     0
102
RTVSPost2010Prop52
140
1.0
102
RTVSPost2010PropOp52
 70
     0
102
RTVSPost2010Prop53
 90
        2
102
RTVSPost2010PropOp53
 70
     1
102
RTVSPost2010Prop54
  1
strokes_ogs.tif
102
RTVSPost2010PropOp54
 70
     1
102
RTVSPost2010Prop55
280
     0
102
RTVSPost2010PropOp55
 70
     1
102
RTVSPost2010Prop56
140
1.0
102
RTVSPost2010PropOp56
 70
     1
102
RTVSPost2010Prop57
140
1.0
102
RTVSPost2010PropOp57
 70
     1
  0
XRECORD
  5
2FA
102
{ACAD_REACTORS
330
2F9
102
}
330
2F9
100
AcDbXrecord
280
     1
102
RTVSPropertyOp0
 70
     1
102
RTVSPropertyOp1
 70
     1
102
RTVSPropertyOp2
 70
     1
102
RTVSPropertyOp3
 70
     1
102
RTVSPropertyOp4
 70
     1
102
RTVSPropertyOp5
 70
     1
102
RTVSPropertyOp6
 70
     1
102
RTVSPropertyOp7
 70
     1
102
RTVSPropertyOp8
 70
     1
102
RTVSPropertyOp9
 70
     1
102
RTVSPropertyOp10
 70
     1
102
RTVSPropertyOp11
 70
     1
102
RTVSPropertyOp12
 70
     1
102
RTVSPropertyOp13
 70
     1
102
RTVSPropertyOp14
 70
     1
102
RTVSPropertyOp15
 70
     1
102
RTVSPropertyOp16
 70
     1
102
RTVSPropertyOp17
 70
     1
102
RTVSPropertyOp18
 70
     1
102
RTVSPropertyOp19
 70
     1
102
RTVSPropertyOp20
 70
     1
102
RTVSPropertyOp21
 70
     1
102
RTVSPropertyOp22
 70
     1
102
RTVSPropertyOp23
 70
     1
102
RTVSPropertyOp24
 70
     1
102
RTVSPropertyOp25
 70
     1
102
RTVSPropertyOp26
 70
     1
102
RTVSPropertyOp27
 70
     1
102
RTVSPropertyOp28
 70
     1
102
RTVSPropertyOp29
 70
     1
102
RTVSPropertyOp30
 70
     1
102
RTVSPropertyOp31
 70
     1
102
RTVSPropertyOp32
 70
     1
102
RTVSPropertyOp33
 70
     1
102
RTVSPropertyOp34
 70
     1
102
RTVSPropertyOp35
 70
     1
102
RTVSPropertyOp36
 70
     1
102
RTVSPropertyOp37
 70
     1
102
RTVSPropertyOp38
 70
     1
102
RTVSPropertyOp39
 70
     1
102
RTVSPropertyOp40
 70
     1
102
RTVSPropertyOp41
 70
     1
102
RTVSPropertyOp42
 70
     1
102
RTVSPropertyOp43
 70
     1
102
RTVSPropertyOp44
 70
     1
102
RTVSPropertyOp45
 70
     1
102
RTVSPropertyOp46
 70
     1
102
RTVSPropertyOp47
 70
     1
102
RTVSPropertyOp48
 70
     1
102
RTVSPropertyOp49
 70
     1
102
RTVSPropertyOp50
 70
     1
102
RTVSPropertyOp51
 70
     0
102
RTVSPropertyOp52
 70
     0
102
RTVSPropertyOp53
 70
     1
102
RTVSPropertyOp54
 70
     1
102
RTVSPropertyOp55
 70
     1
102
RTVSPropertyOp56
 70
     1
102
RTVSPropertyOp57
 70
     1
102
RTVSPost2010Prop28
280
     0
102
RTVSPost2010PropOp28
 70
     1
102
RTVSPost2010Prop29
280
     1
102
RTVSPost2010PropOp29
 70
     1
102
RTVSPost2010Prop30
280
     1
102
RTVSPost2010PropOp30
 70
     1
102
RTVSPost2010Prop31
280
     0
102
RTVSPost2010PropOp31
 70
     1
102
RTVSPost2010Prop32
280
     0
102
RTVSPost2010PropOp32
 70
     1
102
RTVSPost2010Prop33
280
     0
102
RTVSPost2010PropOp33
 70
     1
102
RTVSPost2010Prop34
280
     0
102
RTVSPost2010PropOp34
 70
     1
102
RTVSPost2010Prop35
280
     0
102
RTVSPost2010PropOp35
 70
     1
102
RTVSPost2010Prop36
280
     0
102
RTVSPost2010PropOp36
 70
     1
102
RTVSPost2010Prop37
 90
       50
102
RTVSPost2010PropOp37
 70
     1
102
RTVSPost2010Prop38
140
0.0
102
RTVSPost2010PropOp38
 70
     1
102
RTVSPost2010Prop39
140
1.0
102
RTVSPost2010PropOp39
 70
     1
102
RTVSPost2010Prop40
 90
        0
102
RTVSPost2010PropOp40
 70
     1
102
RTVSPost2010Prop41ColorIndex
 90
       18
102
RTVSPost2010Prop41ColorRGB
 90
        0
102
RTVSPost2010PropOp41
 70
     1
102
RTVSPost2010Prop42
 90
       50
102
RTVSPost2010PropOp42
 70
     1
102
RTVSPost2010Prop43
 90
        3
102
RTVSPost2010PropOp43
 70
     1
102
RTVSPost2010Prop44ColorIndex
 90
        5
102
RTVSPost2010Prop44ColorRGB
 90
      255
102
RTVSPost2010PropOp44
 70
     1
102
RTVSPost2010Prop45
280
     0
102
RTVSPost2010PropOp45
 70
     1
102
RTVSPost2010Prop46
 90
       50
102
RTVSPost2010PropOp46
 70
     1
102
RTVSPost2010Prop47
 90
       50
102
RTVSPost2010PropOp47
 70
     1
102
RTVSPost2010Prop48
 90
       50
102
RTVSPost2010PropOp48
 70
     1
102
RTVSPost2010Prop49
280
     0
102
RTVSPost2010PropOp49
 70
     1
102
RTVSPost2010Prop50
 90
       50
102
RTVSPost2010PropOp50
 70
     1
102
RTVSPost2010Prop51ColorIndex
 90
      256
102
RTVSPost2010Prop51ColorRGB
 90
-16777216
102
RTVSPost2010PropOp51
 70
     0
102
RTVSPost2010Prop52
140
1.0
102
RTVSPost2010PropOp52
 70
     0
102
RTVSPost2010Prop53
 90
        2
102
RTVSPost2010PropOp53
 70
     1
102
RTVSPost2010Prop54
  1
strokes_ogs.tif
102
RTVSPost2010PropOp54
 70
     1
102
RTVSPost2010Prop55
280
     0
102
RTVSPost2010PropOp55
 70
     1
102
RTVSPost2010Prop56
140
1.0
102
RTVSPost2010PropOp56
 70
     1
102
RTVSPost2010Prop57
140
1.0
102
RTVSPost2010PropOp57
 70
     1
  0
XRECORD
  5
2FC
102
{ACAD_REACTORS
330
2FB
102
}
330
2FB
100
AcDbXrecord
280
     1
102
RTVSPropertyOp0
 70
     1
102
RTVSPropertyOp1
 70
     1
102
RTVSPropertyOp2
 70
     1
102
RTVSPropertyOp3
 70
     1
102
RTVSPropertyOp4
 70
     1
102
RTVSPropertyOp5
 70
     1
102
RTVSPropertyOp6
 70
     1
102
RTVSPropertyOp7
 70
     1
102
RTVSPropertyOp8
 70
     1
102
RTVSPropertyOp9
 70
     1
102
RTVSPropertyOp10
 70
     1
102
RTVSPropertyOp11
 70
     1
102
RTVSPropertyOp12
 70
     1
102
RTVSPropertyOp13
 70
     1
102
RTVSPropertyOp14
 70
     1
102
RTVSPropertyOp15
 70
     1
102
RTVSPropertyOp16
 70
     1
102
RTVSPropertyOp17
 70
     1
102
RTVSPropertyOp18
 70
     1
102
RTVSPropertyOp19
 70
     1
102
RTVSPropertyOp20
 70
     1
102
RTVSPropertyOp21
 70
     1
102
RTVSPropertyOp22
 70
     1
102
RTVSPropertyOp23
 70
     1
102
RTVSPropertyOp24
 70
     1
102
RTVSPropertyOp25
 70
     1
102
RTVSPropertyOp26
 70
     1
102
RTVSPropertyOp27
 70
     1
102
RTVSPropertyOp28
 70
     1
102
RTVSPropertyOp29
 70
     1
102
RTVSPropertyOp30
 70
     1
102
RTVSPropertyOp31
 70
     1
102
RTVSPropertyOp32
 70
     1
102
RTVSPropertyOp33
 70
     1
102
RTVSPropertyOp34
 70
     1
102
RTVSPropertyOp35
 70
     1
102
RTVSPropertyOp36
 70
     1
102
RTVSPropertyOp37
 70
     1
102
RTVSPropertyOp38
 70
     1
102
RTVSPropertyOp39
 70
     1
102
RTVSPropertyOp40
 70
     1
102
RTVSPropertyOp41
 70
     1
102
RTVSPropertyOp42
 70
     1
102
RTVSPropertyOp43
 70
     1
102
RTVSPropertyOp44
 70
     1
102
RTVSPropertyOp45
 70
     1
102
RTVSPropertyOp46
 70
     1
102
RTVSPropertyOp47
 70
     1
102
RTVSPropertyOp48
 70
     1
102
RTVSPropertyOp49
 70
     1
102
RTVSPropertyOp50
 70
     1
102
RTVSPropertyOp51
 70
     0
102
RTVSPropertyOp52
 70
     0
102
RTVSPropertyOp53
 70
     1
102
RTVSPropertyOp54
 70
     1
102
RTVSPropertyOp55
 70
     1
102
RTVSPropertyOp56
 70
     1
102
RTVSPropertyOp57
 70
     1
102
RTVSPost2010Prop28
280
     0
102
RTVSPost2010PropOp28
 70
     1
102
RTVSPost2010Prop29
280
     1
102
RTVSPost2010PropOp29
 70
     1
102
RTVSPost2010Prop30
280
     1
102
RTVSPost2010PropOp30
 70
     1
102
RTVSPost2010Prop31
280
     0
102
RTVSPost2010PropOp31
 70
     1
102
RTVSPost2010Prop32
280
     0
102
RTVSPost2010PropOp32
 70
     1
102
RTVSPost2010Prop33
280
     0
102
RTVSPost2010PropOp33
 70
     1
102
RTVSPost2010Prop34
280
     0
102
RTVSPost2010PropOp34
 70
     1
102
RTVSPost2010Prop35
280
     0
102
RTVSPost2010PropOp35
 70
     1
102
RTVSPost2010Prop36
280
     0
102
RTVSPost2010PropOp36
 70
     1
102
RTVSPost2010Prop37
 90
       50
102
RTVSPost2010PropOp37
 70
     1
102
RTVSPost2010Prop38
140
0.0
102
RTVSPost2010PropOp38
 70
     1
102
RTVSPost2010Prop39
140
1.0
102
RTVSPost2010PropOp39
 70
     1
102
RTVSPost2010Prop40
 90
        0
102
RTVSPost2010PropOp40
 70
     1
102
RTVSPost2010Prop41ColorIndex
 90
       18
102
RTVSPost2010Prop41ColorRGB
 90
        0
102
RTVSPost2010PropOp41
 70
     1
102
RTVSPost2010Prop42
 90
       50
102
RTVSPost2010PropOp42
 70
     1
102
RTVSPost2010Prop43
 90
        3
102
RTVSPost2010PropOp43
 70
     1
102
RTVSPost2010Prop44ColorIndex
 90
        5
102
RTVSPost2010Prop44ColorRGB
 90
      255
102
RTVSPost2010PropOp44
 70
     1
102
RTVSPost2010Prop45
280
     0
102
RTVSPost2010PropOp45
 70
     1
102
RTVSPost2010Prop46
 90
       50
102
RTVSPost2010PropOp46
 70
     1
102
RTVSPost2010Prop47
 90
       50
102
RTVSPost2010PropOp47
 70
     1
102
RTVSPost2010Prop48
 90
       50
102
RTVSPost2010PropOp48
 70
     1
102
RTVSPost2010Prop49
280
     0
102
RTVSPost2010PropOp49
 70
     1
102
RTVSPost2010Prop50
 90
       50
102
RTVSPost2010PropOp50
 70
     1
102
RTVSPost2010Prop51ColorIndex
 90
      256
102
RTVSPost2010Prop51ColorRGB
 90
-16777216
102
RTVSPost2010PropOp51
 70
     0
102
RTVSPost2010Prop52
140
1.0
102
RTVSPost2010PropOp52
 70
     0
102
RTVSPost2010Prop53
 90
        2
102
RTVSPost2010PropOp53
 70
     1
102
RTVSPost2010Prop54
  1
strokes_ogs.tif
102
RTVSPost2010PropOp54
 70
     1
102
RTVSPost2010Prop55
280
     0
102
RTVSPost2010PropOp55
 70
     1
102
RTVSPost2010Prop56
140
1.0
102
RTVSPost2010PropOp56
 70
     1
102
RTVSPost2010Prop57
140
1.0
102
RTVSPost2010PropOp57
 70
     1
  0
XRECORD
  5
2FE
102
{ACAD_REACTORS
330
2FD
102
}
330
2FD
100
AcDbXrecord
280
     1
102
RTVSPropertyOp0
 70
     1
102
RTVSPropertyOp1
 70
     1
102
RTVSPropertyOp2
 70
     1
102
RTVSPropertyOp3
 70
     1
102
RTVSPropertyOp4
 70
     1
102
RTVSPropertyOp5
 70
     1
102
RTVSPropertyOp6
 70
     1
102
RTVSPropertyOp7
 70
     1
102
RTVSPropertyOp8
 70
     1
102
RTVSPropertyOp9
 70
     1
102
RTVSPropertyOp10
 70
     1
102
RTVSPropertyOp11
 70
     1
102
RTVSPropertyOp12
 70
     1
102
RTVSPropertyOp13
 70
     1
102
RTVSPropertyOp14
 70
     1
102
RTVSPropertyOp15
 70
     1
102
RTVSPropertyOp16
 70
     1
102
RTVSPropertyOp17
 70
     1
102
RTVSPropertyOp18
 70
     1
102
RTVSPropertyOp19
 70
     1
102
RTVSPropertyOp20
 70
     1
102
RTVSPropertyOp21
 70
     1
102
RTVSPropertyOp22
 70
     1
102
RTVSPropertyOp23
 70
     1
102
RTVSPropertyOp24
 70
     1
102
RTVSPropertyOp25
 70
     1
102
RTVSPropertyOp26
 70
     1
102
RTVSPropertyOp27
 70
     1
102
RTVSPropertyOp28
 70
     1
102
RTVSPropertyOp29
 70
     1
102
RTVSPropertyOp30
 70
     1
102
RTVSPropertyOp31
 70
     1
102
RTVSPropertyOp32
 70
     1
102
RTVSPropertyOp33
 70
     1
102
RTVSPropertyOp34
 70
     1
102
RTVSPropertyOp35
 70
     1
102
RTVSPropertyOp36
 70
     1
102
RTVSPropertyOp37
 70
     1
102
RTVSPropertyOp38
 70
     1
102
RTVSPropertyOp39
 70
     1
102
RTVSPropertyOp40
 70
     1
102
RTVSPropertyOp41
 70
     1
102
RTVSPropertyOp42
 70
     1
102
RTVSPropertyOp43
 70
     1
102
RTVSPropertyOp44
 70
     1
102
RTVSPropertyOp45
 70
     1
102
RTVSPropertyOp46
 70
     1
102
RTVSPropertyOp47
 70
     1
102
RTVSPropertyOp48
 70
     1
102
RTVSPropertyOp49
 70
     1
102
RTVSPropertyOp50
 70
     1
102
RTVSPropertyOp51
 70
     0
102
RTVSPropertyOp52
 70
     0
102
RTVSPropertyOp53
 70
     1
102
RTVSPropertyOp54
 70
     1
102
RTVSPropertyOp55
 70
     1
102
RTVSPropertyOp56
 70
     1
102
RTVSPropertyOp57
 70
     1
102
RTVSPost2010Prop28
280
     0
102
RTVSPost2010PropOp28
 70
     1
102
RTVSPost2010Prop29
280
     1
102
RTVSPost2010PropOp29
 70
     1
102
RTVSPost2010Prop30
280
     1
102
RTVSPost2010PropOp30
 70
     1
102
RTVSPost2010Prop31
280
     0
102
RTVSPost2010PropOp31
 70
     1
102
RTVSPost2010Prop32
280
     0
102
RTVSPost2010PropOp32
 70
     1
102
RTVSPost2010Prop33
280
     0
102
RTVSPost2010PropOp33
 70
     1
102
RTVSPost2010Prop34
280
     0
102
RTVSPost2010PropOp34
 70
     1
102
RTVSPost2010Prop35
280
     0
102
RTVSPost2010PropOp35
 70
     1
102
RTVSPost2010Prop36
280
     0
102
RTVSPost2010PropOp36
 70
     1
102
RTVSPost2010Prop37
 90
       50
102
RTVSPost2010PropOp37
 70
     1
102
RTVSPost2010Prop38
140
0.0
102
RTVSPost2010PropOp38
 70
     1
102
RTVSPost2010Prop39
140
1.0
102
RTVSPost2010PropOp39
 70
     1
102
RTVSPost2010Prop40
 90
        0
102
RTVSPost2010PropOp40
 70
     1
102
RTVSPost2010Prop41ColorIndex
 90
       18
102
RTVSPost2010Prop41ColorRGB
 90
        0
102
RTVSPost2010PropOp41
 70
     1
102
RTVSPost2010Prop42
 90
       50
102
RTVSPost2010PropOp42
 70
     1
102
RTVSPost2010Prop43
 90
        3
102
RTVSPost2010PropOp43
 70
     1
102
RTVSPost2010Prop44ColorIndex
 90
        5
102
RTVSPost2010Prop44ColorRGB
 90
      255
102
RTVSPost2010PropOp44
 70
     1
102
RTVSPost2010Prop45
280
     0
102
RTVSPost2010PropOp45
 70
     1
102
RTVSPost2010Prop46
 90
       50
102
RTVSPost2010PropOp46
 70
     1
102
RTVSPost2010Prop47
 90
       50
102
RTVSPost2010PropOp47
 70
     1
102
RTVSPost2010Prop48
 90
       50
102
RTVSPost2010PropOp48
 70
     1
102
RTVSPost2010Prop49
280
     0
102
RTVSPost2010PropOp49
 70
     1
102
RTVSPost2010Prop50
 90
       50
102
RTVSPost2010PropOp50
 70
     1
102
RTVSPost2010Prop51ColorIndex
 90
      256
102
RTVSPost2010Prop51ColorRGB
 90
-16777216
102
RTVSPost2010PropOp51
 70
     0
102
RTVSPost2010Prop52
140
1.0
102
RTVSPost2010PropOp52
 70
     0
102
RTVSPost2010Prop53
 90
        2
102
RTVSPost2010PropOp53
 70
     1
102
RTVSPost2010Prop54
  1
strokes_ogs.tif
102
RTVSPost2010PropOp54
 70
     1
102
RTVSPost2010Prop55
280
     0
102
RTVSPost2010PropOp55
 70
     1
102
RTVSPost2010Prop56
140
1.0
102
RTVSPost2010PropOp56
 70
     1
102
RTVSPost2010Prop57
140
1.0
102
RTVSPost2010PropOp57
 70
     1
  0
XRECORD
  5
300
102
{ACAD_REACTORS
330
2FF
102
}
330
2FF
100
AcDbXrecord
280
     1
102
RTVSPropertyOp0
 70
     1
102
RTVSPropertyOp1
 70
     1
102
RTVSPropertyOp2
 70
     1
102
RTVSPropertyOp3
 70
     1
102
RTVSPropertyOp4
 70
     1
102
RTVSPropertyOp5
 70
     1
102
RTVSPropertyOp6
 70
     1
102
RTVSPropertyOp7
 70
     1
102
RTVSPropertyOp8
 70
     1
102
RTVSPropertyOp9
 70
     1
102
RTVSPropertyOp10
 70
     1
102
RTVSPropertyOp11
 70
     1
102
RTVSPropertyOp12
 70
     1
102
RTVSPropertyOp13
 70
     1
102
RTVSPropertyOp14
 70
     1
102
RTVSPropertyOp15
 70
     1
102
RTVSPropertyOp16
 70
     1
102
RTVSPropertyOp17
 70
     1
102
RTVSPropertyOp18
 70
     1
102
RTVSPropertyOp19
 70
     1
102
RTVSPropertyOp20
 70
     1
102
RTVSPropertyOp21
 70
     1
102
RTVSPropertyOp22
 70
     1
102
RTVSPropertyOp23
 70
     1
102
RTVSPropertyOp24
 70
     1
102
RTVSPropertyOp25
 70
     1
102
RTVSPropertyOp26
 70
     1
102
RTVSPropertyOp27
 70
     1
102
RTVSPropertyOp28
 70
     1
102
RTVSPropertyOp29
 70
     1
102
RTVSPropertyOp30
 70
     1
102
RTVSPropertyOp31
 70
     1
102
RTVSPropertyOp32
 70
     1
102
RTVSPropertyOp33
 70
     1
102
RTVSPropertyOp34
 70
     1
102
RTVSPropertyOp35
 70
     1
102
RTVSPropertyOp36
 70
     1
102
RTVSPropertyOp37
 70
     1
102
RTVSPropertyOp38
 70
     1
102
RTVSPropertyOp39
 70
     1
102
RTVSPropertyOp40
 70
     1
102
RTVSPropertyOp41
 70
     1
102
RTVSPropertyOp42
 70
     1
102
RTVSPropertyOp43
 70
     1
102
RTVSPropertyOp44
 70
     1
102
RTVSPropertyOp45
 70
     1
102
RTVSPropertyOp46
 70
     1
102
RTVSPropertyOp47
 70
     1
102
RTVSPropertyOp48
 70
     1
102
RTVSPropertyOp49
 70
     1
102
RTVSPropertyOp50
 70
     1
102
RTVSPropertyOp51
 70
     0
102
RTVSPropertyOp52
 70
     0
102
RTVSPropertyOp53
 70
     1
102
RTVSPropertyOp54
 70
     1
102
RTVSPropertyOp55
 70
     1
102
RTVSPropertyOp56
 70
     1
102
RTVSPropertyOp57
 70
     1
102
RTVSPost2010Prop28
280
     0
102
RTVSPost2010PropOp28
 70
     1
102
RTVSPost2010Prop29
280
     1
102
RTVSPost2010PropOp29
 70
     1
102
RTVSPost2010Prop30
280
     1
102
RTVSPost2010PropOp30
 70
     1
102
RTVSPost2010Prop31
280
     0
102
RTVSPost2010PropOp31
 70
     1
102
RTVSPost2010Prop32
280
     0
102
RTVSPost2010PropOp32
 70
     1
102
RTVSPost2010Prop33
280
     0
102
RTVSPost2010PropOp33
 70
     1
102
RTVSPost2010Prop34
280
     0
102
RTVSPost2010PropOp34
 70
     1
102
RTVSPost2010Prop35
280
     0
102
RTVSPost2010PropOp35
 70
     1
102
RTVSPost2010Prop36
280
     0
102
RTVSPost2010PropOp36
 70
     1
102
RTVSPost2010Prop37
 90
       50
102
RTVSPost2010PropOp37
 70
     1
102
RTVSPost2010Prop38
140
0.0
102
RTVSPost2010PropOp38
 70
     1
102
RTVSPost2010Prop39
140
1.0
102
RTVSPost2010PropOp39
 70
     1
102
RTVSPost2010Prop40
 90
        0
102
RTVSPost2010PropOp40
 70
     1
102
RTVSPost2010Prop41ColorIndex
 90
       18
102
RTVSPost2010Prop41ColorRGB
 90
        0
102
RTVSPost2010PropOp41
 70
     1
102
RTVSPost2010Prop42
 90
       50
102
RTVSPost2010PropOp42
 70
     1
102
RTVSPost2010Prop43
 90
        3
102
RTVSPost2010PropOp43
 70
     1
102
RTVSPost2010Prop44ColorIndex
 90
        5
102
RTVSPost2010Prop44ColorRGB
 90
      255
102
RTVSPost2010PropOp44
 70
     1
102
RTVSPost2010Prop45
280
     0
102
RTVSPost2010PropOp45
 70
     1
102
RTVSPost2010Prop46
 90
       50
102
RTVSPost2010PropOp46
 70
     1
102
RTVSPost2010Prop47
 90
       50
102
RTVSPost2010PropOp47
 70
     1
102
RTVSPost2010Prop48
 90
       50
102
RTVSPost2010PropOp48
 70
     1
102
RTVSPost2010Prop49
280
     0
102
RTVSPost2010PropOp49
 70
     1
102
RTVSPost2010Prop50
 90
       50
102
RTVSPost2010PropOp50
 70
     1
102
RTVSPost2010Prop51ColorIndex
 90
      256
102
RTVSPost2010Prop51ColorRGB
 90
-16777216
102
RTVSPost2010PropOp51
 70
     0
102
RTVSPost2010Prop52
140
1.0
102
RTVSPost2010PropOp52
 70
     0
102
RTVSPost2010Prop53
 90
        2
102
RTVSPost2010PropOp53
 70
     1
102
RTVSPost2010Prop54
  1
strokes_ogs.tif
102
RTVSPost2010PropOp54
 70
     1
102
RTVSPost2010Prop55
280
     0
102
RTVSPost2010PropOp55
 70
     1
102
RTVSPost2010Prop56
140
1.0
102
RTVSPost2010PropOp56
 70
     1
102
RTVSPost2010Prop57
140
1.0
102
RTVSPost2010PropOp57
 70
     1
  0
XRECORD
  5
306
102
{ACAD_REACTORS
330
305
102
}
330
305
100
AcDbXrecord
280
     1
102
RTVSPropertyOp0
 70
     1
102
RTVSPropertyOp1
 70
     1
102
RTVSPropertyOp2
 70
     1
102
RTVSPropertyOp3
 70
     1
102
RTVSPropertyOp4
 70
     1
102
RTVSPropertyOp5
 70
     1
102
RTVSPropertyOp6
 70
     1
102
RTVSPropertyOp7
 70
     1
102
RTVSPropertyOp8
 70
     1
102
RTVSPropertyOp9
 70
     1
102
RTVSPropertyOp10
 70
     1
102
RTVSPropertyOp11
 70
     1
102
RTVSPropertyOp12
 70
     1
102
RTVSPropertyOp13
 70
     1
102
RTVSPropertyOp14
 70
     1
102
RTVSPropertyOp15
 70
     1
102
RTVSPropertyOp16
 70
     1
102
RTVSPropertyOp17
 70
     1
102
RTVSPropertyOp18
 70
     1
102
RTVSPropertyOp19
 70
     1
102
RTVSPropertyOp20
 70
     1
102
RTVSPropertyOp21
 70
     1
102
RTVSPropertyOp22
 70
     1
102
RTVSPropertyOp23
 70
     1
102
RTVSPropertyOp24
 70
     1
102
RTVSPropertyOp25
 70
     1
102
RTVSPropertyOp26
 70
     1
102
RTVSPropertyOp27
 70
     1
102
RTVSPropertyOp28
 70
     1
102
RTVSPropertyOp29
 70
     1
102
RTVSPropertyOp30
 70
     1
102
RTVSPropertyOp31
 70
     1
102
RTVSPropertyOp32
 70
     1
102
RTVSPropertyOp33
 70
     1
102
RTVSPropertyOp34
 70
     1
102
RTVSPropertyOp35
 70
     1
102
RTVSPropertyOp36
 70
     1
102
RTVSPropertyOp37
 70
     1
102
RTVSPropertyOp38
 70
     1
102
RTVSPropertyOp39
 70
     1
102
RTVSPropertyOp40
 70
     1
102
RTVSPropertyOp41
 70
     1
102
RTVSPropertyOp42
 70
     1
102
RTVSPropertyOp43
 70
     1
102
RTVSPropertyOp44
 70
     1
102
RTVSPropertyOp45
 70
     1
102
RTVSPropertyOp46
 70
     1
102
RTVSPropertyOp47
 70
     1
102
RTVSPropertyOp48
 70
     1
102
RTVSPropertyOp49
 70
     1
102
RTVSPropertyOp50
 70
     1
102
RTVSPropertyOp51
 70
     0
102
RTVSPropertyOp52
 70
     0
102
RTVSPropertyOp53
 70
     1
102
RTVSPropertyOp54
 70
     1
102
RTVSPropertyOp55
 70
     1
102
RTVSPropertyOp56
 70
     1
102
RTVSPropertyOp57
 70
     1
102
RTVSPost2010Prop28
280
     0
102
RTVSPost2010PropOp28
 70
     1
102
RTVSPost2010Prop29
280
     1
102
RTVSPost2010PropOp29
 70
     1
102
RTVSPost2010Prop30
280
     1
102
RTVSPost2010PropOp30
 70
     1
102
RTVSPost2010Prop31
280
     0
102
RTVSPost2010PropOp31
 70
     1
102
RTVSPost2010Prop32
280
     0
102
RTVSPost2010PropOp32
 70
     1
102
RTVSPost2010Prop33
280
     0
102
RTVSPost2010PropOp33
 70
     1
102
RTVSPost2010Prop34
280
     0
102
RTVSPost2010PropOp34
 70
     1
102
RTVSPost2010Prop35
280
     0
102
RTVSPost2010PropOp35
 70
     1
102
RTVSPost2010Prop36
280
     0
102
RTVSPost2010PropOp36
 70
     1
102
RTVSPost2010Prop37
 90
       50
102
RTVSPost2010PropOp37
 70
     1
102
RTVSPost2010Prop38
140
0.0
102
RTVSPost2010PropOp38
 70
     1
102
RTVSPost2010Prop39
140
1.0
102
RTVSPost2010PropOp39
 70
     1
102
RTVSPost2010Prop40
 90
        0
102
RTVSPost2010PropOp40
 70
     1
102
RTVSPost2010Prop41ColorIndex
 90
       18
102
RTVSPost2010Prop41ColorRGB
 90
        0
102
RTVSPost2010PropOp41
 70
     1
102
RTVSPost2010Prop42
 90
       50
102
RTVSPost2010PropOp42
 70
     1
102
RTVSPost2010Prop43
 90
        3
102
RTVSPost2010PropOp43
 70
     1
102
RTVSPost2010Prop44ColorIndex
 90
        5
102
RTVSPost2010Prop44ColorRGB
 90
      255
102
RTVSPost2010PropOp44
 70
     1
102
RTVSPost2010Prop45
280
     0
102
RTVSPost2010PropOp45
 70
     1
102
RTVSPost2010Prop46
 90
       50
102
RTVSPost2010PropOp46
 70
     1
102
RTVSPost2010Prop47
 90
       50
102
RTVSPost2010PropOp47
 70
     1
102
RTVSPost2010Prop48
 90
       50
102
RTVSPost2010PropOp48
 70
     1
102
RTVSPost2010Prop49
280
     0
102
RTVSPost2010PropOp49
 70
     1
102
RTVSPost2010Prop50
 90
       50
102
RTVSPost2010PropOp50
 70
     1
102
RTVSPost2010Prop51ColorIndex
 90
      256
102
RTVSPost2010Prop51ColorRGB
 90
-16777216
102
RTVSPost2010PropOp51
 70
     0
102
RTVSPost2010Prop52
140
1.0
102
RTVSPost2010PropOp52
 70
     0
102
RTVSPost2010Prop53
 90
        2
102
RTVSPost2010PropOp53
 70
     1
102
RTVSPost2010Prop54
  1
strokes_ogs.tif
102
RTVSPost2010PropOp54
 70
     1
102
RTVSPost2010Prop55
280
     0
102
RTVSPost2010PropOp55
 70
     1
102
RTVSPost2010Prop56
140
1.0
102
RTVSPost2010PropOp56
 70
     1
102
RTVSPost2010Prop57
140
1.0
102
RTVSPost2010PropOp57
 70
     1
  0
XRECORD
  5
31A
102
{ACAD_REACTORS
330
319
102
}
330
319
100
AcDbXrecord
280
     1
102
RTVSPropertyOp0
 70
     0
102
RTVSPropertyOp1
 70
     0
102
RTVSPropertyOp2
 70
     0
102
RTVSPropertyOp3
 70
     0
102
RTVSPropertyOp4
 70
     0
102
RTVSPropertyOp5
 70
     0
102
RTVSPropertyOp6
 70
     0
102
RTVSPropertyOp7
 70
     0
102
RTVSPropertyOp8
 70
     0
102
RTVSPropertyOp9
 70
     0
102
RTVSPropertyOp10
 70
     0
102
RTVSPropertyOp11
 70
     0
102
RTVSPropertyOp12
 70
     0
102
RTVSPropertyOp13
 70
     0
102
RTVSPropertyOp14
 70
     2
102
RTVSPropertyOp15
 70
     0
102
RTVSPropertyOp16
 70
     0
102
RTVSPropertyOp17
 70
     0
102
RTVSPropertyOp18
 70
     0
102
RTVSPropertyOp19
 70
     0
102
RTVSPropertyOp20
 70
     0
102
RTVSPropertyOp21
 70
     0
102
RTVSPropertyOp22
 70
     0
102
RTVSPropertyOp23
 70
     0
102
RTVSPropertyOp24
 70
     0
102
RTVSPropertyOp25
 70
     0
102
RTVSPropertyOp26
 70
     0
102
RTVSPropertyOp27
 70
     0
102
RTVSPropertyOp28
 70
     0
102
RTVSPropertyOp29
 70
     0
102
RTVSPropertyOp30
 70
     0
102
RTVSPropertyOp31
 70
     0
102
RTVSPropertyOp32
 70
     0
102
RTVSPropertyOp33
 70
     0
102
RTVSPropertyOp34
 70
     0
102
RTVSPropertyOp35
 70
     0
102
RTVSPropertyOp36
 70
     0
102
RTVSPropertyOp37
 70
     0
102
RTVSPropertyOp38
 70
     0
102
RTVSPropertyOp39
 70
     0
102
RTVSPropertyOp40
 70
     0
102
RTVSPropertyOp41
 70
     0
102
RTVSPropertyOp42
 70
     0
102
RTVSPropertyOp43
 70
     0
102
RTVSPropertyOp44
 70
     0
102
RTVSPropertyOp45
 70
     0
102
RTVSPropertyOp46
 70
     0
102
RTVSPropertyOp47
 70
     0
102
RTVSPropertyOp48
 70
     0
102
RTVSPropertyOp49
 70
     0
102
RTVSPropertyOp50
 70
     0
102
RTVSPropertyOp51
 70
     0
102
RTVSPropertyOp52
 70
     0
102
RTVSPropertyOp53
 70
     0
102
RTVSPropertyOp54
 70
     0
102
RTVSPropertyOp55
 70
     0
102
RTVSPropertyOp56
 70
     0
102
RTVSPropertyOp57
 70
     0
102
RTVSPost2010Prop28
280
     0
102
RTVSPost2010PropOp28
 70
     0
102
RTVSPost2010Prop29
280
     1
102
RTVSPost2010PropOp29
 70
     0
102
RTVSPost2010Prop30
280
     1
102
RTVSPost2010PropOp30
 70
     0
102
RTVSPost2010Prop31
280
     0
102
RTVSPost2010PropOp31
 70
     0
102
RTVSPost2010Prop32
280
     0
102
RTVSPost2010PropOp32
 70
     0
102
RTVSPost2010Prop33
280
     0
102
RTVSPost2010PropOp33
 70
     0
102
RTVSPost2010Prop34
280
     0
102
RTVSPost2010PropOp34
 70
     0
102
RTVSPost2010Prop35
280
     0
102
RTVSPost2010PropOp35
 70
     0
102
RTVSPost2010Prop36
280
     0
102
RTVSPost2010PropOp36
 70
     0
102
RTVSPost2010Prop37
 90
       50
102
RTVSPost2010PropOp37
 70
     0
102
RTVSPost2010Prop38
140
0.0
102
RTVSPost2010PropOp38
 70
     0
102
RTVSPost2010Prop39
140
1.0
102
RTVSPost2010PropOp39
 70
     0
102
RTVSPost2010Prop40
 90
        0
102
RTVSPost2010PropOp40
 70
     0
102
RTVSPost2010Prop41ColorIndex
 90
       18
102
RTVSPost2010Prop41ColorRGB
 90
        0
102
RTVSPost2010PropOp41
 70
     0
102
RTVSPost2010Prop42
 90
       50
102
RTVSPost2010PropOp42
 70
     0
102
RTVSPost2010Prop43
 90
        3
102
RTVSPost2010PropOp43
 70
     0
102
RTVSPost2010Prop44ColorIndex
 90
        5
102
RTVSPost2010Prop44ColorRGB
 90
      255
102
RTVSPost2010PropOp44
 70
     0
102
RTVSPost2010Prop45
280
     0
102
RTVSPost2010PropOp45
 70
     0
102
RTVSPost2010Prop46
 90
       50
102
RTVSPost2010PropOp46
 70
     0
102
RTVSPost2010Prop47
 90
       50
102
RTVSPost2010PropOp47
 70
     0
102
RTVSPost2010Prop48
 90
       50
102
RTVSPost2010PropOp48
 70
     0
102
RTVSPost2010Prop49
280
     0
102
RTVSPost2010PropOp49
 70
     0
102
RTVSPost2010Prop50
 90
       50
102
RTVSPost2010PropOp50
 70
     0
102
RTVSPost2010Prop51ColorIndex
 90
      256
102
RTVSPost2010Prop51ColorRGB
 90
-16777216
102
RTVSPost2010PropOp51
 70
     0
102
RTVSPost2010Prop52
140
1.0
102
RTVSPost2010PropOp52
 70
     0
102
RTVSPost2010Prop53
 90
        2
102
RTVSPost2010PropOp53
 70
     0
102
RTVSPost2010Prop54
  1
strokes_ogs.tif
102
RTVSPost2010PropOp54
 70
     0
102
RTVSPost2010Prop55
280
     0
102
RTVSPost2010PropOp55
 70
     0
102
RTVSPost2010Prop56
140
1.0
102
RTVSPost2010PropOp56
 70
     0
102
RTVSPost2010Prop57
140
1.0
102
RTVSPost2010PropOp57
 70
     0
  0
XRECORD
  5
314
102
{ACAD_REACTORS
330
313
102
}
330
313
100
AcDbXrecord
280
     1
102
RTVSPropertyOp0
 70
     1
102
RTVSPropertyOp1
 70
     1
102
RTVSPropertyOp2
 70
     1
102
RTVSPropertyOp3
 70
     1
102
RTVSPropertyOp4
 70
     1
102
RTVSPropertyOp5
 70
     1
102
RTVSPropertyOp6
 70
     1
102
RTVSPropertyOp7
 70
     1
102
RTVSPropertyOp8
 70
     1
102
RTVSPropertyOp9
 70
     1
102
RTVSPropertyOp10
 70
     1
102
RTVSPropertyOp11
 70
     1
102
RTVSPropertyOp12
 70
     1
102
RTVSPropertyOp13
 70
     1
102
RTVSPropertyOp14
 70
     1
102
RTVSPropertyOp15
 70
     1
102
RTVSPropertyOp16
 70
     1
102
RTVSPropertyOp17
 70
     1
102
RTVSPropertyOp18
 70
     1
102
RTVSPropertyOp19
 70
     1
102
RTVSPropertyOp20
 70
     1
102
RTVSPropertyOp21
 70
     1
102
RTVSPropertyOp22
 70
     1
102
RTVSPropertyOp23
 70
     1
102
RTVSPropertyOp24
 70
     1
102
RTVSPropertyOp25
 70
     1
102
RTVSPropertyOp26
 70
     1
102
RTVSPropertyOp27
 70
     1
102
RTVSPropertyOp28
 70
     1
102
RTVSPropertyOp29
 70
     1
102
RTVSPropertyOp30
 70
     1
102
RTVSPropertyOp31
 70
     1
102
RTVSPropertyOp32
 70
     1
102
RTVSPropertyOp33
 70
     1
102
RTVSPropertyOp34
 70
     1
102
RTVSPropertyOp35
 70
     1
102
RTVSPropertyOp36
 70
     1
102
RTVSPropertyOp37
 70
     1
102
RTVSPropertyOp38
 70
     1
102
RTVSPropertyOp39
 70
     1
102
RTVSPropertyOp40
 70
     1
102
RTVSPropertyOp41
 70
     1
102
RTVSPropertyOp42
 70
     1
102
RTVSPropertyOp43
 70
     1
102
RTVSPropertyOp44
 70
     1
102
RTVSPropertyOp45
 70
     1
102
RTVSPropertyOp46
 70
     1
102
RTVSPropertyOp47
 70
     1
102
RTVSPropertyOp48
 70
     1
102
RTVSPropertyOp49
 70
     1
102
RTVSPropertyOp50
 70
     1
102
RTVSPropertyOp51
 70
     0
102
RTVSPropertyOp52
 70
     0
102
RTVSPropertyOp53
 70
     1
102
RTVSPropertyOp54
 70
     1
102
RTVSPropertyOp55
 70
     1
102
RTVSPropertyOp56
 70
     1
102
RTVSPropertyOp57
 70
     1
102
RTVSPost2010Prop28
280
     0
102
RTVSPost2010PropOp28
 70
     1
102
RTVSPost2010Prop29
280
     1
102
RTVSPost2010PropOp29
 70
     1
102
RTVSPost2010Prop30
280
     1
102
RTVSPost2010PropOp30
 70
     1
102
RTVSPost2010Prop31
280
     0
102
RTVSPost2010PropOp31
 70
     1
102
RTVSPost2010Prop32
280
     0
102
RTVSPost2010PropOp32
 70
     1
102
RTVSPost2010Prop33
280
     0
102
RTVSPost2010PropOp33
 70
     1
102
RTVSPost2010Prop34
280
     0
102
RTVSPost2010PropOp34
 70
     1
102
RTVSPost2010Prop35
280
     0
102
RTVSPost2010PropOp35
 70
     1
102
RTVSPost2010Prop36
280
     0
102
RTVSPost2010PropOp36
 70
     1
102
RTVSPost2010Prop37
 90
       50
102
RTVSPost2010PropOp37
 70
     1
102
RTVSPost2010Prop38
140
0.0
102
RTVSPost2010PropOp38
 70
     1
102
RTVSPost2010Prop39
140
1.0
102
RTVSPost2010PropOp39
 70
     1
102
RTVSPost2010Prop40
 90
        0
102
RTVSPost2010PropOp40
 70
     1
102
RTVSPost2010Prop41ColorIndex
 90
       18
102
RTVSPost2010Prop41ColorRGB
 90
        0
102
RTVSPost2010PropOp41
 70
     1
102
RTVSPost2010Prop42
 90
       50
102
RTVSPost2010PropOp42
 70
     1
102
RTVSPost2010Prop43
 90
        3
102
RTVSPost2010PropOp43
 70
     1
102
RTVSPost2010Prop44ColorIndex
 90
        5
102
RTVSPost2010Prop44ColorRGB
 90
      255
102
RTVSPost2010PropOp44
 70
     1
102
RTVSPost2010Prop45
280
     0
102
RTVSPost2010PropOp45
 70
     1
102
RTVSPost2010Prop46
 90
       50
102
RTVSPost2010PropOp46
 70
     1
102
RTVSPost2010Prop47
 90
       50
102
RTVSPost2010PropOp47
 70
     1
102
RTVSPost2010Prop48
 90
       50
102
RTVSPost2010PropOp48
 70
     1
102
RTVSPost2010Prop49
280
     0
102
RTVSPost2010PropOp49
 70
     1
102
RTVSPost2010Prop50
 90
       50
102
RTVSPost2010PropOp50
 70
     1
102
RTVSPost2010Prop51ColorIndex
 90
      256
102
RTVSPost2010Prop51ColorRGB
 90
-16777216
102
RTVSPost2010PropOp51
 70
     0
102
RTVSPost2010Prop52
140
1.0
102
RTVSPost2010PropOp52
 70
     0
102
RTVSPost2010Prop53
 90
        2
102
RTVSPost2010PropOp53
 70
     1
102
RTVSPost2010Prop54
  1
strokes_ogs.tif
102
RTVSPost2010PropOp54
 70
     1
102
RTVSPost2010Prop55
280
     0
102
RTVSPost2010PropOp55
 70
     1
102
RTVSPost2010Prop56
140
1.0
102
RTVSPost2010PropOp56
 70
     1
102
RTVSPost2010Prop57
140
1.0
102
RTVSPost2010PropOp57
 70
     1
  0
XRECORD
  5
31C
102
{ACAD_REACTORS
330
31B
102
}
330
31B
100
AcDbXrecord
280
     1
102
RTVSPropertyOp0
 70
     0
102
RTVSPropertyOp1
 70
     0
102
RTVSPropertyOp2
 70
     0
102
RTVSPropertyOp3
 70
     0
102
RTVSPropertyOp4
 70
     0
102
RTVSPropertyOp5
 70
     0
102
RTVSPropertyOp6
 70
     0
102
RTVSPropertyOp7
 70
     0
102
RTVSPropertyOp8
 70
     0
102
RTVSPropertyOp9
 70
     0
102
RTVSPropertyOp10
 70
     0
102
RTVSPropertyOp11
 70
     0
102
RTVSPropertyOp12
 70
     0
102
RTVSPropertyOp13
 70
     0
102
RTVSPropertyOp14
 70
     2
102
RTVSPropertyOp15
 70
     0
102
RTVSPropertyOp16
 70
     0
102
RTVSPropertyOp17
 70
     0
102
RTVSPropertyOp18
 70
     0
102
RTVSPropertyOp19
 70
     0
102
RTVSPropertyOp20
 70
     0
102
RTVSPropertyOp21
 70
     0
102
RTVSPropertyOp22
 70
     0
102
RTVSPropertyOp23
 70
     0
102
RTVSPropertyOp24
 70
     0
102
RTVSPropertyOp25
 70
     0
102
RTVSPropertyOp26
 70
     0
102
RTVSPropertyOp27
 70
     0
102
RTVSPropertyOp28
 70
     0
102
RTVSPropertyOp29
 70
     0
102
RTVSPropertyOp30
 70
     0
102
RTVSPropertyOp31
 70
     0
102
RTVSPropertyOp32
 70
     0
102
RTVSPropertyOp33
 70
     0
102
RTVSPropertyOp34
 70
     0
102
RTVSPropertyOp35
 70
     0
102
RTVSPropertyOp36
 70
     0
102
RTVSPropertyOp37
 70
     0
102
RTVSPropertyOp38
 70
     0
102
RTVSPropertyOp39
 70
     0
102
RTVSPropertyOp40
 70
     0
102
RTVSPropertyOp41
 70
     0
102
RTVSPropertyOp42
 70
     0
102
RTVSPropertyOp43
 70
     0
102
RTVSPropertyOp44
 70
     0
102
RTVSPropertyOp45
 70
     0
102
RTVSPropertyOp46
 70
     0
102
RTVSPropertyOp47
 70
     0
102
RTVSPropertyOp48
 70
     0
102
RTVSPropertyOp49
 70
     0
102
RTVSPropertyOp50
 70
     0
102
RTVSPropertyOp51
 70
     0
102
RTVSPropertyOp52
 70
     0
102
RTVSPropertyOp53
 70
     0
102
RTVSPropertyOp54
 70
     0
102
RTVSPropertyOp55
 70
     0
102
RTVSPropertyOp56
 70
     0
102
RTVSPropertyOp57
 70
     0
102
RTVSPost2010Prop28
280
     0
102
RTVSPost2010PropOp28
 70
     0
102
RTVSPost2010Prop29
280
     1
102
RTVSPost2010PropOp29
 70
     0
102
RTVSPost2010Prop30
280
     1
102
RTVSPost2010PropOp30
 70
     0
102
RTVSPost2010Prop31
280
     0
102
RTVSPost2010PropOp31
 70
     0
102
RTVSPost2010Prop32
280
     0
102
RTVSPost2010PropOp32
 70
     0
102
RTVSPost2010Prop33
280
     0
102
RTVSPost2010PropOp33
 70
     0
102
RTVSPost2010Prop34
280
     0
102
RTVSPost2010PropOp34
 70
     0
102
RTVSPost2010Prop35
280
     0
102
RTVSPost2010PropOp35
 70
     0
102
RTVSPost2010Prop36
280
     0
102
RTVSPost2010PropOp36
 70
     0
102
RTVSPost2010Prop37
 90
       50
102
RTVSPost2010PropOp37
 70
     0
102
RTVSPost2010Prop38
140
0.0
102
RTVSPost2010PropOp38
 70
     0
102
RTVSPost2010Prop39
140
1.0
102
RTVSPost2010PropOp39
 70
     0
102
RTVSPost2010Prop40
 90
        0
102
RTVSPost2010PropOp40
 70
     0
102
RTVSPost2010Prop41ColorIndex
 90
       18
102
RTVSPost2010Prop41ColorRGB
 90
        0
102
RTVSPost2010PropOp41
 70
     0
102
RTVSPost2010Prop42
 90
       50
102
RTVSPost2010PropOp42
 70
     0
102
RTVSPost2010Prop43
 90
        3
102
RTVSPost2010PropOp43
 70
     0
102
RTVSPost2010Prop44ColorIndex
 90
        5
102
RTVSPost2010Prop44ColorRGB
 90
      255
102
RTVSPost2010PropOp44
 70
     0
102
RTVSPost2010Prop45
280
     0
102
RTVSPost2010PropOp45
 70
     0
102
RTVSPost2010Prop46
 90
       50
102
RTVSPost2010PropOp46
 70
     0
102
RTVSPost2010Prop47
 90
       50
102
RTVSPost2010PropOp47
 70
     0
102
RTVSPost2010Prop48
 90
       50
102
RTVSPost2010PropOp48
 70
     0
102
RTVSPost2010Prop49
280
     0
102
RTVSPost2010PropOp49
 70
     0
102
RTVSPost2010Prop50
 90
       50
102
RTVSPost2010PropOp50
 70
     0
102
RTVSPost2010Prop51ColorIndex
 90
      256
102
RTVSPost2010Prop51ColorRGB
 90
-16777216
102
RTVSPost2010PropOp51
 70
     0
102
RTVSPost2010Prop52
140
1.0
102
RTVSPost2010PropOp52
 70
     0
102
RTVSPost2010Prop53
 90
        2
102
RTVSPost2010PropOp53
 70
     0
102
RTVSPost2010Prop54
  1
strokes_ogs.tif
102
RTVSPost2010PropOp54
 70
     0
102
RTVSPost2010Prop55
280
     0
102
RTVSPost2010PropOp55
 70
     0
102
RTVSPost2010Prop56
140
1.0
102
RTVSPost2010PropOp56
 70
     0
102
RTVSPost2010Prop57
140
1.0
102
RTVSPost2010PropOp57
 70
     0
  0
XRECORD
  5
30A
102
{ACAD_REACTORS
330
309
102
}
330
309
100
AcDbXrecord
280
     1
102
RTVSPropertyOp0
 70
     1
102
RTVSPropertyOp1
 70
     1
102
RTVSPropertyOp2
 70
     1
102
RTVSPropertyOp3
 70
     1
102
RTVSPropertyOp4
 70
     1
102
RTVSPropertyOp5
 70
     1
102
RTVSPropertyOp6
 70
     1
102
RTVSPropertyOp7
 70
     1
102
RTVSPropertyOp8
 70
     1
102
RTVSPropertyOp9
 70
     1
102
RTVSPropertyOp10
 70
     1
102
RTVSPropertyOp11
 70
     1
102
RTVSPropertyOp12
 70
     1
102
RTVSPropertyOp13
 70
     1
102
RTVSPropertyOp14
 70
     1
102
RTVSPropertyOp15
 70
     1
102
RTVSPropertyOp16
 70
     1
102
RTVSPropertyOp17
 70
     1
102
RTVSPropertyOp18
 70
     1
102
RTVSPropertyOp19
 70
     1
102
RTVSPropertyOp20
 70
     1
102
RTVSPropertyOp21
 70
     1
102
RTVSPropertyOp22
 70
     1
102
RTVSPropertyOp23
 70
     1
102
RTVSPropertyOp24
 70
     1
102
RTVSPropertyOp25
 70
     1
102
RTVSPropertyOp26
 70
     1
102
RTVSPropertyOp27
 70
     1
102
RTVSPropertyOp28
 70
     1
102
RTVSPropertyOp29
 70
     1
102
RTVSPropertyOp30
 70
     1
102
RTVSPropertyOp31
 70
     1
102
RTVSPropertyOp32
 70
     1
102
RTVSPropertyOp33
 70
     1
102
RTVSPropertyOp34
 70
     1
102
RTVSPropertyOp35
 70
     1
102
RTVSPropertyOp36
 70
     1
102
RTVSPropertyOp37
 70
     1
102
RTVSPropertyOp38
 70
     1
102
RTVSPropertyOp39
 70
     1
102
RTVSPropertyOp40
 70
     1
102
RTVSPropertyOp41
 70
     1
102
RTVSPropertyOp42
 70
     1
102
RTVSPropertyOp43
 70
     1
102
RTVSPropertyOp44
 70
     1
102
RTVSPropertyOp45
 70
     1
102
RTVSPropertyOp46
 70
     1
102
RTVSPropertyOp47
 70
     1
102
RTVSPropertyOp48
 70
     1
102
RTVSPropertyOp49
 70
     1
102
RTVSPropertyOp50
 70
     1
102
RTVSPropertyOp51
 70
     0
102
RTVSPropertyOp52
 70
     0
102
RTVSPropertyOp53
 70
     1
102
RTVSPropertyOp54
 70
     1
102
RTVSPropertyOp55
 70
     1
102
RTVSPropertyOp56
 70
     1
102
RTVSPropertyOp57
 70
     1
102
RTVSPost2010Prop28
280
     0
102
RTVSPost2010PropOp28
 70
     1
102
RTVSPost2010Prop29
280
     1
102
RTVSPost2010PropOp29
 70
     1
102
RTVSPost2010Prop30
280
     1
102
RTVSPost2010PropOp30
 70
     1
102
RTVSPost2010Prop31
280
     0
102
RTVSPost2010PropOp31
 70
     1
102
RTVSPost2010Prop32
280
     0
102
RTVSPost2010PropOp32
 70
     1
102
RTVSPost2010Prop33
280
     0
102
RTVSPost2010PropOp33
 70
     1
102
RTVSPost2010Prop34
280
     0
102
RTVSPost2010PropOp34
 70
     1
102
RTVSPost2010Prop35
280
     0
102
RTVSPost2010PropOp35
 70
     1
102
RTVSPost2010Prop36
280
     0
102
RTVSPost2010PropOp36
 70
     1
102
RTVSPost2010Prop37
 90
       50
102
RTVSPost2010PropOp37
 70
     1
102
RTVSPost2010Prop38
140
0.0
102
RTVSPost2010PropOp38
 70
     1
102
RTVSPost2010Prop39
140
1.0
102
RTVSPost2010PropOp39
 70
     1
102
RTVSPost2010Prop40
 90
        0
102
RTVSPost2010PropOp40
 70
     1
102
RTVSPost2010Prop41ColorIndex
 90
       18
102
RTVSPost2010Prop41ColorRGB
 90
        0
102
RTVSPost2010PropOp41
 70
     1
102
RTVSPost2010Prop42
 90
       50
102
RTVSPost2010PropOp42
 70
     1
102
RTVSPost2010Prop43
 90
        3
102
RTVSPost2010PropOp43
 70
     1
102
RTVSPost2010Prop44ColorIndex
 90
        5
102
RTVSPost2010Prop44ColorRGB
 90
      255
102
RTVSPost2010PropOp44
 70
     1
102
RTVSPost2010Prop45
280
     0
102
RTVSPost2010PropOp45
 70
     1
102
RTVSPost2010Prop46
 90
       50
102
RTVSPost2010PropOp46
 70
     1
102
RTVSPost2010Prop47
 90
       50
102
RTVSPost2010PropOp47
 70
     1
102
RTVSPost2010Prop48
 90
       50
102
RTVSPost2010PropOp48
 70
     1
102
RTVSPost2010Prop49
280
     0
102
RTVSPost2010PropOp49
 70
     1
102
RTVSPost2010Prop50
 90
       50
102
RTVSPost2010PropOp50
 70
     1
102
RTVSPost2010Prop51ColorIndex
 90
      256
102
RTVSPost2010Prop51ColorRGB
 90
-16777216
102
RTVSPost2010PropOp51
 70
     0
102
RTVSPost2010Prop52
140
1.0
102
RTVSPost2010PropOp52
 70
     0
102
RTVSPost2010Prop53
 90
        2
102
RTVSPost2010PropOp53
 70
     1
102
RTVSPost2010Prop54
  1
strokes_ogs.tif
102
RTVSPost2010PropOp54
 70
     1
102
RTVSPost2010Prop55
280
     0
102
RTVSPost2010PropOp55
 70
     1
102
RTVSPost2010Prop56
140
1.0
102
RTVSPost2010PropOp56
 70
     1
102
RTVSPost2010Prop57
140
1.0
102
RTVSPost2010PropOp57
 70
     1
  0
XRECORD
  5
328
102
{ACAD_REACTORS
330
327
102
}
330
327
100
AcDbXrecord
280
     1
102
RTVSPropertyOp0
 70
     1
102
RTVSPropertyOp1
 70
     1
102
RTVSPropertyOp2
 70
     1
102
RTVSPropertyOp3
 70
     1
102
RTVSPropertyOp4
 70
     1
102
RTVSPropertyOp5
 70
     1
102
RTVSPropertyOp6
 70
     1
102
RTVSPropertyOp7
 70
     1
102
RTVSPropertyOp8
 70
     1
102
RTVSPropertyOp9
 70
     1
102
RTVSPropertyOp10
 70
     1
102
RTVSPropertyOp11
 70
     1
102
RTVSPropertyOp12
 70
     1
102
RTVSPropertyOp13
 70
     1
102
RTVSPropertyOp14
 70
     1
102
RTVSPropertyOp15
 70
     1
102
RTVSPropertyOp16
 70
     1
102
RTVSPropertyOp17
 70
     1
102
RTVSPropertyOp18
 70
     1
102
RTVSPropertyOp19
 70
     1
102
RTVSPropertyOp20
 70
     1
102
RTVSPropertyOp21
 70
     1
102
RTVSPropertyOp22
 70
     1
102
RTVSPropertyOp23
 70
     1
102
RTVSPropertyOp24
 70
     1
102
RTVSPropertyOp25
 70
     1
102
RTVSPropertyOp26
 70
     1
102
RTVSPropertyOp27
 70
     1
102
RTVSPropertyOp28
 70
     1
102
RTVSPropertyOp29
 70
     1
102
RTVSPropertyOp30
 70
     1
102
RTVSPropertyOp31
 70
     1
102
RTVSPropertyOp32
 70
     1
102
RTVSPropertyOp33
 70
     1
102
RTVSPropertyOp34
 70
     1
102
RTVSPropertyOp35
 70
     1
102
RTVSPropertyOp36
 70
     1
102
RTVSPropertyOp37
 70
     1
102
RTVSPropertyOp38
 70
     1
102
RTVSPropertyOp39
 70
     1
102
RTVSPropertyOp40
 70
     1
102
RTVSPropertyOp41
 70
     1
102
RTVSPropertyOp42
 70
     1
102
RTVSPropertyOp43
 70
     1
102
RTVSPropertyOp44
 70
     1
102
RTVSPropertyOp45
 70
     1
102
RTVSPropertyOp46
 70
     1
102
RTVSPropertyOp47
 70
     1
102
RTVSPropertyOp48
 70
     1
102
RTVSPropertyOp49
 70
     1
102
RTVSPropertyOp50
 70
     1
102
RTVSPropertyOp51
 70
     0
102
RTVSPropertyOp52
 70
     0
102
RTVSPropertyOp53
 70
     1
102
RTVSPropertyOp54
 70
     1
102
RTVSPropertyOp55
 70
     1
102
RTVSPropertyOp56
 70
     1
102
RTVSPropertyOp57
 70
     1
102
RTVSPost2010Prop28
280
     0
102
RTVSPost2010PropOp28
 70
     1
102
RTVSPost2010Prop29
280
     1
102
RTVSPost2010PropOp29
 70
     1
102
RTVSPost2010Prop30
280
     1
102
RTVSPost2010PropOp30
 70
     1
102
RTVSPost2010Prop31
280
     0
102
RTVSPost2010PropOp31
 70
     1
102
RTVSPost2010Prop32
280
     0
102
RTVSPost2010PropOp32
 70
     1
102
RTVSPost2010Prop33
280
     0
102
RTVSPost2010PropOp33
 70
     1
102
RTVSPost2010Prop34
280
     0
102
RTVSPost2010PropOp34
 70
     1
102
RTVSPost2010Prop35
280
     0
102
RTVSPost2010PropOp35
 70
     1
102
RTVSPost2010Prop36
280
     0
102
RTVSPost2010PropOp36
 70
     1
102
RTVSPost2010Prop37
 90
       50
102
RTVSPost2010PropOp37
 70
     1
102
RTVSPost2010Prop38
140
0.0
102
RTVSPost2010PropOp38
 70
     1
102
RTVSPost2010Prop39
140
1.0
102
RTVSPost2010PropOp39
 70
     1
102
RTVSPost2010Prop40
 90
        0
102
RTVSPost2010PropOp40
 70
     1
102
RTVSPost2010Prop41ColorIndex
 90
       18
102
RTVSPost2010Prop41ColorRGB
 90
        0
102
RTVSPost2010PropOp41
 70
     1
102
RTVSPost2010Prop42
 90
       50
102
RTVSPost2010PropOp42
 70
     1
102
RTVSPost2010Prop43
 90
        3
102
RTVSPost2010PropOp43
 70
     1
102
RTVSPost2010Prop44ColorIndex
 90
        5
102
RTVSPost2010Prop44ColorRGB
 90
      255
102
RTVSPost2010PropOp44
 70
     1
102
RTVSPost2010Prop45
280
     0
102
RTVSPost2010PropOp45
 70
     1
102
RTVSPost2010Prop46
 90
       50
102
RTVSPost2010PropOp46
 70
     1
102
RTVSPost2010Prop47
 90
       50
102
RTVSPost2010PropOp47
 70
     1
102
RTVSPost2010Prop48
 90
       50
102
RTVSPost2010PropOp48
 70
     1
102
RTVSPost2010Prop49
280
     0
102
RTVSPost2010PropOp49
 70
     1
102
RTVSPost2010Prop50
 90
       50
102
RTVSPost2010PropOp50
 70
     1
102
RTVSPost2010Prop51ColorIndex
 90
      256
102
RTVSPost2010Prop51ColorRGB
 90
-16777216
102
RTVSPost2010PropOp51
 70
     0
102
RTVSPost2010Prop52
140
1.0
102
RTVSPost2010PropOp52
 70
     0
102
RTVSPost2010Prop53
 90
        2
102
RTVSPost2010PropOp53
 70
     1
102
RTVSPost2010Prop54
  1
strokes_ogs.tif
102
RTVSPost2010PropOp54
 70
     1
102
RTVSPost2010Prop55
280
     0
102
RTVSPost2010PropOp55
 70
     1
102
RTVSPost2010Prop56
140
1.0
102
RTVSPost2010PropOp56
 70
     1
102
RTVSPost2010Prop57
140
1.0
102
RTVSPost2010PropOp57
 70
     1
  0
XRECORD
  5
326
102
{ACAD_REACTORS
330
325
102
}
330
325
100
AcDbXrecord
280
     1
102
RTVSPropertyOp0
 70
     1
102
RTVSPropertyOp1
 70
     1
102
RTVSPropertyOp2
 70
     1
102
RTVSPropertyOp3
 70
     1
102
RTVSPropertyOp4
 70
     1
102
RTVSPropertyOp5
 70
     1
102
RTVSPropertyOp6
 70
     1
102
RTVSPropertyOp7
 70
     1
102
RTVSPropertyOp8
 70
     1
102
RTVSPropertyOp9
 70
     1
102
RTVSPropertyOp10
 70
     1
102
RTVSPropertyOp11
 70
     1
102
RTVSPropertyOp12
 70
     1
102
RTVSPropertyOp13
 70
     1
102
RTVSPropertyOp14
 70
     1
102
RTVSPropertyOp15
 70
     1
102
RTVSPropertyOp16
 70
     1
102
RTVSPropertyOp17
 70
     1
102
RTVSPropertyOp18
 70
     1
102
RTVSPropertyOp19
 70
     1
102
RTVSPropertyOp20
 70
     1
102
RTVSPropertyOp21
 70
     1
102
RTVSPropertyOp22
 70
     1
102
RTVSPropertyOp23
 70
     1
102
RTVSPropertyOp24
 70
     1
102
RTVSPropertyOp25
 70
     1
102
RTVSPropertyOp26
 70
     1
102
RTVSPropertyOp27
 70
     1
102
RTVSPropertyOp28
 70
     1
102
RTVSPropertyOp29
 70
     1
102
RTVSPropertyOp30
 70
     1
102
RTVSPropertyOp31
 70
     1
102
RTVSPropertyOp32
 70
     1
102
RTVSPropertyOp33
 70
     1
102
RTVSPropertyOp34
 70
     1
102
RTVSPropertyOp35
 70
     1
102
RTVSPropertyOp36
 70
     1
102
RTVSPropertyOp37
 70
     1
102
RTVSPropertyOp38
 70
     1
102
RTVSPropertyOp39
 70
     1
102
RTVSPropertyOp40
 70
     1
102
RTVSPropertyOp41
 70
     1
102
RTVSPropertyOp42
 70
     1
102
RTVSPropertyOp43
 70
     1
102
RTVSPropertyOp44
 70
     1
102
RTVSPropertyOp45
 70
     1
102
RTVSPropertyOp46
 70
     1
102
RTVSPropertyOp47
 70
     1
102
RTVSPropertyOp48
 70
     1
102
RTVSPropertyOp49
 70
     1
102
RTVSPropertyOp50
 70
     1
102
RTVSPropertyOp51
 70
     0
102
RTVSPropertyOp52
 70
     0
102
RTVSPropertyOp53
 70
     1
102
RTVSPropertyOp54
 70
     1
102
RTVSPropertyOp55
 70
     1
102
RTVSPropertyOp56
 70
     1
102
RTVSPropertyOp57
 70
     1
102
RTVSPost2010Prop28
280
     0
102
RTVSPost2010PropOp28
 70
     1
102
RTVSPost2010Prop29
280
     1
102
RTVSPost2010PropOp29
 70
     1
102
RTVSPost2010Prop30
280
     1
102
RTVSPost2010PropOp30
 70
     1
102
RTVSPost2010Prop31
280
     0
102
RTVSPost2010PropOp31
 70
     1
102
RTVSPost2010Prop32
280
     0
102
RTVSPost2010PropOp32
 70
     1
102
RTVSPost2010Prop33
280
     0
102
RTVSPost2010PropOp33
 70
     1
102
RTVSPost2010Prop34
280
     0
102
RTVSPost2010PropOp34
 70
     1
102
RTVSPost2010Prop35
280
     0
102
RTVSPost2010PropOp35
 70
     1
102
RTVSPost2010Prop36
280
     0
102
RTVSPost2010PropOp36
 70
     1
102
RTVSPost2010Prop37
 90
       50
102
RTVSPost2010PropOp37
 70
     1
102
RTVSPost2010Prop38
140
0.0
102
RTVSPost2010PropOp38
 70
     1
102
RTVSPost2010Prop39
140
1.0
102
RTVSPost2010PropOp39
 70
     1
102
RTVSPost2010Prop40
 90
        0
102
RTVSPost2010PropOp40
 70
     1
102
RTVSPost2010Prop41ColorIndex
 90
       18
102
RTVSPost2010Prop41ColorRGB
 90
        0
102
RTVSPost2010PropOp41
 70
     1
102
RTVSPost2010Prop42
 90
       50
102
RTVSPost2010PropOp42
 70
     1
102
RTVSPost2010Prop43
 90
        3
102
RTVSPost2010PropOp43
 70
     1
102
RTVSPost2010Prop44ColorIndex
 90
        5
102
RTVSPost2010Prop44ColorRGB
 90
      255
102
RTVSPost2010PropOp44
 70
     1
102
RTVSPost2010Prop45
280
     0
102
RTVSPost2010PropOp45
 70
     1
102
RTVSPost2010Prop46
 90
       50
102
RTVSPost2010PropOp46
 70
     1
102
RTVSPost2010Prop47
 90
       50
102
RTVSPost2010PropOp47
 70
     1
102
RTVSPost2010Prop48
 90
       50
102
RTVSPost2010PropOp48
 70
     1
102
RTVSPost2010Prop49
280
     0
102
RTVSPost2010PropOp49
 70
     1
102
RTVSPost2010Prop50
 90
       50
102
RTVSPost2010PropOp50
 70
     1
102
RTVSPost2010Prop51ColorIndex
 90
      256
102
RTVSPost2010Prop51ColorRGB
 90
-16777216
102
RTVSPost2010PropOp51
 70
     0
102
RTVSPost2010Prop52
140
1.0
102
RTVSPost2010PropOp52
 70
     0
102
RTVSPost2010Prop53
 90
        2
102
RTVSPost2010PropOp53
 70
     1
102
RTVSPost2010Prop54
  1
strokes_ogs.tif
102
RTVSPost2010PropOp54
 70
     1
102
RTVSPost2010Prop55
280
     0
102
RTVSPost2010PropOp55
 70
     1
102
RTVSPost2010Prop56
140
1.0
102
RTVSPost2010PropOp56
 70
     1
102
RTVSPost2010Prop57
140
1.0
102
RTVSPost2010PropOp57
 70
     1
  0
XRECORD
  5
320
102
{ACAD_REACTORS
330
31F
102
}
330
31F
100
AcDbXrecord
280
     1
102
RTVSPropertyOp0
 70
     1
102
RTVSPropertyOp1
 70
     1
102
RTVSPropertyOp2
 70
     1
102
RTVSPropertyOp3
 70
     1
102
RTVSPropertyOp4
 70
     1
102
RTVSPropertyOp5
 70
     1
102
RTVSPropertyOp6
 70
     1
102
RTVSPropertyOp7
 70
     1
102
RTVSPropertyOp8
 70
     1
102
RTVSPropertyOp9
 70
     1
102
RTVSPropertyOp10
 70
     1
102
RTVSPropertyOp11
 70
     1
102
RTVSPropertyOp12
 70
     1
102
RTVSPropertyOp13
 70
     1
102
RTVSPropertyOp14
 70
     1
102
RTVSPropertyOp15
 70
     1
102
RTVSPropertyOp16
 70
     1
102
RTVSPropertyOp17
 70
     1
102
RTVSPropertyOp18
 70
     1
102
RTVSPropertyOp19
 70
     1
102
RTVSPropertyOp20
 70
     1
102
RTVSPropertyOp21
 70
     1
102
RTVSPropertyOp22
 70
     1
102
RTVSPropertyOp23
 70
     1
102
RTVSPropertyOp24
 70
     1
102
RTVSPropertyOp25
 70
     1
102
RTVSPropertyOp26
 70
     1
102
RTVSPropertyOp27
 70
     1
102
RTVSPropertyOp28
 70
     1
102
RTVSPropertyOp29
 70
     1
102
RTVSPropertyOp30
 70
     1
102
RTVSPropertyOp31
 70
     1
102
RTVSPropertyOp32
 70
     1
102
RTVSPropertyOp33
 70
     1
102
RTVSPropertyOp34
 70
     1
102
RTVSPropertyOp35
 70
     1
102
RTVSPropertyOp36
 70
     1
102
RTVSPropertyOp37
 70
     1
102
RTVSPropertyOp38
 70
     1
102
RTVSPropertyOp39
 70
     1
102
RTVSPropertyOp40
 70
     1
102
RTVSPropertyOp41
 70
     1
102
RTVSPropertyOp42
 70
     1
102
RTVSPropertyOp43
 70
     1
102
RTVSPropertyOp44
 70
     1
102
RTVSPropertyOp45
 70
     1
102
RTVSPropertyOp46
 70
     1
102
RTVSPropertyOp47
 70
     1
102
RTVSPropertyOp48
 70
     1
102
RTVSPropertyOp49
 70
     1
102
RTVSPropertyOp50
 70
     1
102
RTVSPropertyOp51
 70
     0
102
RTVSPropertyOp52
 70
     0
102
RTVSPropertyOp53
 70
     1
102
RTVSPropertyOp54
 70
     1
102
RTVSPropertyOp55
 70
     1
102
RTVSPropertyOp56
 70
     1
102
RTVSPropertyOp57
 70
     1
102
RTVSPost2010Prop28
280
     0
102
RTVSPost2010PropOp28
 70
     1
102
RTVSPost2010Prop29
280
     1
102
RTVSPost2010PropOp29
 70
     1
102
RTVSPost2010Prop30
280
     1
102
RTVSPost2010PropOp30
 70
     1
102
RTVSPost2010Prop31
280
     0
102
RTVSPost2010PropOp31
 70
     1
102
RTVSPost2010Prop32
280
     0
102
RTVSPost2010PropOp32
 70
     1
102
RTVSPost2010Prop33
280
     0
102
RTVSPost2010PropOp33
 70
     1
102
RTVSPost2010Prop34
280
     0
102
RTVSPost2010PropOp34
 70
     1
102
RTVSPost2010Prop35
280
     0
102
RTVSPost2010PropOp35
 70
     1
102
RTVSPost2010Prop36
280
     0
102
RTVSPost2010PropOp36
 70
     1
102
RTVSPost2010Prop37
 90
       50
102
RTVSPost2010PropOp37
 70
     1
102
RTVSPost2010Prop38
140
0.0
102
RTVSPost2010PropOp38
 70
     1
102
RTVSPost2010Prop39
140
1.0
102
RTVSPost2010PropOp39
 70
     1
102
RTVSPost2010Prop40
 90
        0
102
RTVSPost2010PropOp40
 70
     1
102
RTVSPost2010Prop41ColorIndex
 90
       18
102
RTVSPost2010Prop41ColorRGB
 90
        0
102
RTVSPost2010PropOp41
 70
     1
102
RTVSPost2010Prop42
 90
       50
102
RTVSPost2010PropOp42
 70
     1
102
RTVSPost2010Prop43
 90
        3
102
RTVSPost2010PropOp43
 70
     1
102
RTVSPost2010Prop44ColorIndex
 90
        5
102
RTVSPost2010Prop44ColorRGB
 90
      255
102
RTVSPost2010PropOp44
 70
     1
102
RTVSPost2010Prop45
280
     0
102
RTVSPost2010PropOp45
 70
     1
102
RTVSPost2010Prop46
 90
       50
102
RTVSPost2010PropOp46
 70
     1
102
RTVSPost2010Prop47
 90
       50
102
RTVSPost2010PropOp47
 70
     1
102
RTVSPost2010Prop48
 90
       50
102
RTVSPost2010PropOp48
 70
     1
102
RTVSPost2010Prop49
280
     0
102
RTVSPost2010PropOp49
 70
     1
102
RTVSPost2010Prop50
 90
       50
102
RTVSPost2010PropOp50
 70
     1
102
RTVSPost2010Prop51ColorIndex
 90
      256
102
RTVSPost2010Prop51ColorRGB
 90
-16777216
102
RTVSPost2010PropOp51
 70
     0
102
RTVSPost2010Prop52
140
1.0
102
RTVSPost2010PropOp52
 70
     0
102
RTVSPost2010Prop53
 90
        2
102
RTVSPost2010PropOp53
 70
     1
102
RTVSPost2010Prop54
  1
strokes_ogs.tif
102
RTVSPost2010PropOp54
 70
     1
102
RTVSPost2010Prop55
280
     0
102
RTVSPost2010PropOp55
 70
     1
102
RTVSPost2010Prop56
140
1.0
102
RTVSPost2010PropOp56
 70
     1
102
RTVSPost2010Prop57
140
1.0
102
RTVSPost2010PropOp57
 70
     1
  0
XRECORD
  5
322
102
{ACAD_REACTORS
330
321
102
}
330
321
100
AcDbXrecord
280
     1
102
RTVSPropertyOp0
 70
     1
102
RTVSPropertyOp1
 70
     1
102
RTVSPropertyOp2
 70
     1
102
RTVSPropertyOp3
 70
     1
102
RTVSPropertyOp4
 70
     1
102
RTVSPropertyOp5
 70
     1
102
RTVSPropertyOp6
 70
     1
102
RTVSPropertyOp7
 70
     1
102
RTVSPropertyOp8
 70
     1
102
RTVSPropertyOp9
 70
     1
102
RTVSPropertyOp10
 70
     1
102
RTVSPropertyOp11
 70
     1
102
RTVSPropertyOp12
 70
     1
102
RTVSPropertyOp13
 70
     1
102
RTVSPropertyOp14
 70
     1
102
RTVSPropertyOp15
 70
     1
102
RTVSPropertyOp16
 70
     1
102
RTVSPropertyOp17
 70
     1
102
RTVSPropertyOp18
 70
     1
102
RTVSPropertyOp19
 70
     1
102
RTVSPropertyOp20
 70
     1
102
RTVSPropertyOp21
 70
     1
102
RTVSPropertyOp22
 70
     1
102
RTVSPropertyOp23
 70
     1
102
RTVSPropertyOp24
 70
     1
102
RTVSPropertyOp25
 70
     1
102
RTVSPropertyOp26
 70
     1
102
RTVSPropertyOp27
 70
     1
102
RTVSPropertyOp28
 70
     1
102
RTVSPropertyOp29
 70
     1
102
RTVSPropertyOp30
 70
     1
102
RTVSPropertyOp31
 70
     1
102
RTVSPropertyOp32
 70
     1
102
RTVSPropertyOp33
 70
     1
102
RTVSPropertyOp34
 70
     1
102
RTVSPropertyOp35
 70
     1
102
RTVSPropertyOp36
 70
     1
102
RTVSPropertyOp37
 70
     1
102
RTVSPropertyOp38
 70
     1
102
RTVSPropertyOp39
 70
     1
102
RTVSPropertyOp40
 70
     1
102
RTVSPropertyOp41
 70
     1
102
RTVSPropertyOp42
 70
     1
102
RTVSPropertyOp43
 70
     1
102
RTVSPropertyOp44
 70
     1
102
RTVSPropertyOp45
 70
     1
102
RTVSPropertyOp46
 70
     1
102
RTVSPropertyOp47
 70
     1
102
RTVSPropertyOp48
 70
     1
102
RTVSPropertyOp49
 70
     1
102
RTVSPropertyOp50
 70
     1
102
RTVSPropertyOp51
 70
     0
102
RTVSPropertyOp52
 70
     0
102
RTVSPropertyOp53
 70
     1
102
RTVSPropertyOp54
 70
     1
102
RTVSPropertyOp55
 70
     1
102
RTVSPropertyOp56
 70
     1
102
RTVSPropertyOp57
 70
     1
102
RTVSPost2010Prop28
280
     0
102
RTVSPost2010PropOp28
 70
     1
102
RTVSPost2010Prop29
280
     1
102
RTVSPost2010PropOp29
 70
     1
102
RTVSPost2010Prop30
280
     1
102
RTVSPost2010PropOp30
 70
     1
102
RTVSPost2010Prop31
280
     0
102
RTVSPost2010PropOp31
 70
     1
102
RTVSPost2010Prop32
280
     0
102
RTVSPost2010PropOp32
 70
     1
102
RTVSPost2010Prop33
280
     0
102
RTVSPost2010PropOp33
 70
     1
102
RTVSPost2010Prop34
280
     0
102
RTVSPost2010PropOp34
 70
     1
102
RTVSPost2010Prop35
280
     0
102
RTVSPost2010PropOp35
 70
     1
102
RTVSPost2010Prop36
280
     0
102
RTVSPost2010PropOp36
 70
     1
102
RTVSPost2010Prop37
 90
       50
102
RTVSPost2010PropOp37
 70
     1
102
RTVSPost2010Prop38
140
0.0
102
RTVSPost2010PropOp38
 70
     1
102
RTVSPost2010Prop39
140
1.0
102
RTVSPost2010PropOp39
 70
     1
102
RTVSPost2010Prop40
 90
        0
102
RTVSPost2010PropOp40
 70
     1
102
RTVSPost2010Prop41ColorIndex
 90
       18
102
RTVSPost2010Prop41ColorRGB
 90
        0
102
RTVSPost2010PropOp41
 70
     1
102
RTVSPost2010Prop42
 90
       50
102
RTVSPost2010PropOp42
 70
     1
102
RTVSPost2010Prop43
 90
        3
102
RTVSPost2010PropOp43
 70
     1
102
RTVSPost2010Prop44ColorIndex
 90
        5
102
RTVSPost2010Prop44ColorRGB
 90
      255
102
RTVSPost2010PropOp44
 70
     1
102
RTVSPost2010Prop45
280
     0
102
RTVSPost2010PropOp45
 70
     1
102
RTVSPost2010Prop46
 90
       50
102
RTVSPost2010PropOp46
 70
     1
102
RTVSPost2010Prop47
 90
       50
102
RTVSPost2010PropOp47
 70
     1
102
RTVSPost2010Prop48
 90
       50
102
RTVSPost2010PropOp48
 70
     1
102
RTVSPost2010Prop49
280
     0
102
RTVSPost2010PropOp49
 70
     1
102
RTVSPost2010Prop50
 90
       50
102
RTVSPost2010PropOp50
 70
     1
102
RTVSPost2010Prop51ColorIndex
 90
      256
102
RTVSPost2010Prop51ColorRGB
 90
-16777216
102
RTVSPost2010PropOp51
 70
     0
102
RTVSPost2010Prop52
140
1.0
102
RTVSPost2010PropOp52
 70
     0
102
RTVSPost2010Prop53
 90
        2
102
RTVSPost2010PropOp53
 70
     1
102
RTVSPost2010Prop54
  1
strokes_ogs.tif
102
RTVSPost2010PropOp54
 70
     1
102
RTVSPost2010Prop55
280
     0
102
RTVSPost2010PropOp55
 70
     1
102
RTVSPost2010Prop56
140
1.0
102
RTVSPost2010PropOp56
 70
     1
102
RTVSPost2010Prop57
140
1.0
102
RTVSPost2010PropOp57
 70
     1
  0
XRECORD
  5
312
102
{ACAD_REACTORS
330
311
102
}
330
311
100
AcDbXrecord
280
     1
102
RTVSPropertyOp0
 70
     1
102
RTVSPropertyOp1
 70
     1
102
RTVSPropertyOp2
 70
     1
102
RTVSPropertyOp3
 70
     1
102
RTVSPropertyOp4
 70
     1
102
RTVSPropertyOp5
 70
     1
102
RTVSPropertyOp6
 70
     1
102
RTVSPropertyOp7
 70
     1
102
RTVSPropertyOp8
 70
     1
102
RTVSPropertyOp9
 70
     1
102
RTVSPropertyOp10
 70
     1
102
RTVSPropertyOp11
 70
     1
102
RTVSPropertyOp12
 70
     1
102
RTVSPropertyOp13
 70
     1
102
RTVSPropertyOp14
 70
     1
102
RTVSPropertyOp15
 70
     1
102
RTVSPropertyOp16
 70
     1
102
RTVSPropertyOp17
 70
     1
102
RTVSPropertyOp18
 70
     1
102
RTVSPropertyOp19
 70
     1
102
RTVSPropertyOp20
 70
     1
102
RTVSPropertyOp21
 70
     1
102
RTVSPropertyOp22
 70
     1
102
RTVSPropertyOp23
 70
     1
102
RTVSPropertyOp24
 70
     1
102
RTVSPropertyOp25
 70
     1
102
RTVSPropertyOp26
 70
     1
102
RTVSPropertyOp27
 70
     1
102
RTVSPropertyOp28
 70
     1
102
RTVSPropertyOp29
 70
     1
102
RTVSPropertyOp30
 70
     1
102
RTVSPropertyOp31
 70
     1
102
RTVSPropertyOp32
 70
     1
102
RTVSPropertyOp33
 70
     1
102
RTVSPropertyOp34
 70
     1
102
RTVSPropertyOp35
 70
     1
102
RTVSPropertyOp36
 70
     1
102
RTVSPropertyOp37
 70
     1
102
RTVSPropertyOp38
 70
     1
102
RTVSPropertyOp39
 70
     1
102
RTVSPropertyOp40
 70
     1
102
RTVSPropertyOp41
 70
     1
102
RTVSPropertyOp42
 70
     1
102
RTVSPropertyOp43
 70
     1
102
RTVSPropertyOp44
 70
     1
102
RTVSPropertyOp45
 70
     1
102
RTVSPropertyOp46
 70
     1
102
RTVSPropertyOp47
 70
     1
102
RTVSPropertyOp48
 70
     1
102
RTVSPropertyOp49
 70
     1
102
RTVSPropertyOp50
 70
     1
102
RTVSPropertyOp51
 70
     0
102
RTVSPropertyOp52
 70
     0
102
RTVSPropertyOp53
 70
     1
102
RTVSPropertyOp54
 70
     1
102
RTVSPropertyOp55
 70
     1
102
RTVSPropertyOp56
 70
     1
102
RTVSPropertyOp57
 70
     1
102
RTVSPost2010Prop28
280
     0
102
RTVSPost2010PropOp28
 70
     1
102
RTVSPost2010Prop29
280
     1
102
RTVSPost2010PropOp29
 70
     1
102
RTVSPost2010Prop30
280
     1
102
RTVSPost2010PropOp30
 70
     1
102
RTVSPost2010Prop31
280
     0
102
RTVSPost2010PropOp31
 70
     1
102
RTVSPost2010Prop32
280
     0
102
RTVSPost2010PropOp32
 70
     1
102
RTVSPost2010Prop33
280
     0
102
RTVSPost2010PropOp33
 70
     1
102
RTVSPost2010Prop34
280
     0
102
RTVSPost2010PropOp34
 70
     1
102
RTVSPost2010Prop35
280
     0
102
RTVSPost2010PropOp35
 70
     1
102
RTVSPost2010Prop36
280
     0
102
RTVSPost2010PropOp36
 70
     1
102
RTVSPost2010Prop37
 90
       50
102
RTVSPost2010PropOp37
 70
     1
102
RTVSPost2010Prop38
140
0.0
102
RTVSPost2010PropOp38
 70
     1
102
RTVSPost2010Prop39
140
1.0
102
RTVSPost2010PropOp39
 70
     1
102
RTVSPost2010Prop40
 90
        0
102
RTVSPost2010PropOp40
 70
     1
102
RTVSPost2010Prop41ColorIndex
 90
       18
102
RTVSPost2010Prop41ColorRGB
 90
        0
102
RTVSPost2010PropOp41
 70
     1
102
RTVSPost2010Prop42
 90
       50
102
RTVSPost2010PropOp42
 70
     1
102
RTVSPost2010Prop43
 90
        3
102
RTVSPost2010PropOp43
 70
     1
102
RTVSPost2010Prop44ColorIndex
 90
        5
102
RTVSPost2010Prop44ColorRGB
 90
      255
102
RTVSPost2010PropOp44
 70
     1
102
RTVSPost2010Prop45
280
     0
102
RTVSPost2010PropOp45
 70
     1
102
RTVSPost2010Prop46
 90
       50
102
RTVSPost2010PropOp46
 70
     1
102
RTVSPost2010Prop47
 90
       50
102
RTVSPost2010PropOp47
 70
     1
102
RTVSPost2010Prop48
 90
       50
102
RTVSPost2010PropOp48
 70
     1
102
RTVSPost2010Prop49
280
     0
102
RTVSPost2010PropOp49
 70
     1
102
RTVSPost2010Prop50
 90
       50
102
RTVSPost2010PropOp50
 70
     1
102
RTVSPost2010Prop51ColorIndex
 90
      256
102
RTVSPost2010Prop51ColorRGB
 90
-16777216
102
RTVSPost2010PropOp51
 70
     0
102
RTVSPost2010Prop52
140
1.0
102
RTVSPost2010PropOp52
 70
     0
102
RTVSPost2010Prop53
 90
        2
102
RTVSPost2010PropOp53
 70
     1
102
RTVSPost2010Prop54
  1
strokes_ogs.tif
102
RTVSPost2010PropOp54
 70
     1
102
RTVSPost2010Prop55
280
     0
102
RTVSPost2010PropOp55
 70
     1
102
RTVSPost2010Prop56
140
1.0
102
RTVSPost2010PropOp56
 70
     1
102
RTVSPost2010Prop57
140
1.0
102
RTVSPost2010PropOp57
 70
     1
  0
XRECORD
  5
304
102
{ACAD_REACTORS
330
303
102
}
330
303
100
AcDbXrecord
280
     1
102
RTVSPropertyOp0
 70
     1
102
RTVSPropertyOp1
 70
     1
102
RTVSPropertyOp2
 70
     1
102
RTVSPropertyOp3
 70
     1
102
RTVSPropertyOp4
 70
     1
102
RTVSPropertyOp5
 70
     1
102
RTVSPropertyOp6
 70
     1
102
RTVSPropertyOp7
 70
     1
102
RTVSPropertyOp8
 70
     1
102
RTVSPropertyOp9
 70
     1
102
RTVSPropertyOp10
 70
     1
102
RTVSPropertyOp11
 70
     1
102
RTVSPropertyOp12
 70
     1
102
RTVSPropertyOp13
 70
     1
102
RTVSPropertyOp14
 70
     1
102
RTVSPropertyOp15
 70
     1
102
RTVSPropertyOp16
 70
     1
102
RTVSPropertyOp17
 70
     1
102
RTVSPropertyOp18
 70
     1
102
RTVSPropertyOp19
 70
     1
102
RTVSPropertyOp20
 70
     1
102
RTVSPropertyOp21
 70
     1
102
RTVSPropertyOp22
 70
     1
102
RTVSPropertyOp23
 70
     1
102
RTVSPropertyOp24
 70
     1
102
RTVSPropertyOp25
 70
     1
102
RTVSPropertyOp26
 70
     1
102
RTVSPropertyOp27
 70
     1
102
RTVSPropertyOp28
 70
     1
102
RTVSPropertyOp29
 70
     1
102
RTVSPropertyOp30
 70
     1
102
RTVSPropertyOp31
 70
     1
102
RTVSPropertyOp32
 70
     1
102
RTVSPropertyOp33
 70
     1
102
RTVSPropertyOp34
 70
     1
102
RTVSPropertyOp35
 70
     1
102
RTVSPropertyOp36
 70
     1
102
RTVSPropertyOp37
 70
     1
102
RTVSPropertyOp38
 70
     1
102
RTVSPropertyOp39
 70
     1
102
RTVSPropertyOp40
 70
     1
102
RTVSPropertyOp41
 70
     1
102
RTVSPropertyOp42
 70
     1
102
RTVSPropertyOp43
 70
     1
102
RTVSPropertyOp44
 70
     1
102
RTVSPropertyOp45
 70
     1
102
RTVSPropertyOp46
 70
     1
102
RTVSPropertyOp47
 70
     1
102
RTVSPropertyOp48
 70
     1
102
RTVSPropertyOp49
 70
     1
102
RTVSPropertyOp50
 70
     1
102
RTVSPropertyOp51
 70
     0
102
RTVSPropertyOp52
 70
     0
102
RTVSPropertyOp53
 70
     1
102
RTVSPropertyOp54
 70
     1
102
RTVSPropertyOp55
 70
     1
102
RTVSPropertyOp56
 70
     1
102
RTVSPropertyOp57
 70
     1
102
RTVSPost2010Prop28
280
     0
102
RTVSPost2010PropOp28
 70
     1
102
RTVSPost2010Prop29
280
     1
102
RTVSPost2010PropOp29
 70
     1
102
RTVSPost2010Prop30
280
     1
102
RTVSPost2010PropOp30
 70
     1
102
RTVSPost2010Prop31
280
     0
102
RTVSPost2010PropOp31
 70
     1
102
RTVSPost2010Prop32
280
     0
102
RTVSPost2010PropOp32
 70
     1
102
RTVSPost2010Prop33
280
     0
102
RTVSPost2010PropOp33
 70
     1
102
RTVSPost2010Prop34
280
     0
102
RTVSPost2010PropOp34
 70
     1
102
RTVSPost2010Prop35
280
     0
102
RTVSPost2010PropOp35
 70
     1
102
RTVSPost2010Prop36
280
     0
102
RTVSPost2010PropOp36
 70
     1
102
RTVSPost2010Prop37
 90
       50
102
RTVSPost2010PropOp37
 70
     1
102
RTVSPost2010Prop38
140
0.0
102
RTVSPost2010PropOp38
 70
     1
102
RTVSPost2010Prop39
140
1.0
102
RTVSPost2010PropOp39
 70
     1
102
RTVSPost2010Prop40
 90
        0
102
RTVSPost2010PropOp40
 70
     1
102
RTVSPost2010Prop41ColorIndex
 90
       18
102
RTVSPost2010Prop41ColorRGB
 90
        0
102
RTVSPost2010PropOp41
 70
     1
102
RTVSPost2010Prop42
 90
       50
102
RTVSPost2010PropOp42
 70
     1
102
RTVSPost2010Prop43
 90
        3
102
RTVSPost2010PropOp43
 70
     1
102
RTVSPost2010Prop44ColorIndex
 90
        5
102
RTVSPost2010Prop44ColorRGB
 90
      255
102
RTVSPost2010PropOp44
 70
     1
102
RTVSPost2010Prop45
280
     0
102
RTVSPost2010PropOp45
 70
     1
102
RTVSPost2010Prop46
 90
       50
102
RTVSPost2010PropOp46
 70
     1
102
RTVSPost2010Prop47
 90
       50
102
RTVSPost2010PropOp47
 70
     1
102
RTVSPost2010Prop48
 90
       50
102
RTVSPost2010PropOp48
 70
     1
102
RTVSPost2010Prop49
280
     0
102
RTVSPost2010PropOp49
 70
     1
102
RTVSPost2010Prop50
 90
       50
102
RTVSPost2010PropOp50
 70
     1
102
RTVSPost2010Prop51ColorIndex
 90
      256
102
RTVSPost2010Prop51ColorRGB
 90
-16777216
102
RTVSPost2010PropOp51
 70
     0
102
RTVSPost2010Prop52
140
1.0
102
RTVSPost2010PropOp52
 70
     0
102
RTVSPost2010Prop53
 90
        2
102
RTVSPost2010PropOp53
 70
     1
102
RTVSPost2010Prop54
  1
strokes_ogs.tif
102
RTVSPost2010PropOp54
 70
     1
102
RTVSPost2010Prop55
280
     0
102
RTVSPost2010PropOp55
 70
     1
102
RTVSPost2010Prop56
140
1.0
102
RTVSPost2010PropOp56
 70
     1
102
RTVSPost2010Prop57
140
1.0
102
RTVSPost2010PropOp57
 70
     1
  0
XRECORD
  5
324
102
{ACAD_REACTORS
330
323
102
}
330
323
100
AcDbXrecord
280
     1
102
RTVSPropertyOp0
 70
     1
102
RTVSPropertyOp1
 70
     1
102
RTVSPropertyOp2
 70
     1
102
RTVSPropertyOp3
 70
     1
102
RTVSPropertyOp4
 70
     1
102
RTVSPropertyOp5
 70
     1
102
RTVSPropertyOp6
 70
     1
102
RTVSPropertyOp7
 70
     1
102
RTVSPropertyOp8
 70
     1
102
RTVSPropertyOp9
 70
     1
102
RTVSPropertyOp10
 70
     1
102
RTVSPropertyOp11
 70
     1
102
RTVSPropertyOp12
 70
     1
102
RTVSPropertyOp13
 70
     1
102
RTVSPropertyOp14
 70
     1
102
RTVSPropertyOp15
 70
     1
102
RTVSPropertyOp16
 70
     1
102
RTVSPropertyOp17
 70
     1
102
RTVSPropertyOp18
 70
     1
102
RTVSPropertyOp19
 70
     1
102
RTVSPropertyOp20
 70
     1
102
RTVSPropertyOp21
 70
     1
102
RTVSPropertyOp22
 70
     1
102
RTVSPropertyOp23
 70
     1
102
RTVSPropertyOp24
 70
     1
102
RTVSPropertyOp25
 70
     1
102
RTVSPropertyOp26
 70
     1
102
RTVSPropertyOp27
 70
     1
102
RTVSPropertyOp28
 70
     1
102
RTVSPropertyOp29
 70
     1
102
RTVSPropertyOp30
 70
     1
102
RTVSPropertyOp31
 70
     1
102
RTVSPropertyOp32
 70
     1
102
RTVSPropertyOp33
 70
     1
102
RTVSPropertyOp34
 70
     1
102
RTVSPropertyOp35
 70
     1
102
RTVSPropertyOp36
 70
     1
102
RTVSPropertyOp37
 70
     1
102
RTVSPropertyOp38
 70
     1
102
RTVSPropertyOp39
 70
     1
102
RTVSPropertyOp40
 70
     1
102
RTVSPropertyOp41
 70
     1
102
RTVSPropertyOp42
 70
     1
102
RTVSPropertyOp43
 70
     1
102
RTVSPropertyOp44
 70
     1
102
RTVSPropertyOp45
 70
     1
102
RTVSPropertyOp46
 70
     1
102
RTVSPropertyOp47
 70
     1
102
RTVSPropertyOp48
 70
     1
102
RTVSPropertyOp49
 70
     1
102
RTVSPropertyOp50
 70
     1
102
RTVSPropertyOp51
 70
     0
102
RTVSPropertyOp52
 70
     0
102
RTVSPropertyOp53
 70
     1
102
RTVSPropertyOp54
 70
     1
102
RTVSPropertyOp55
 70
     1
102
RTVSPropertyOp56
 70
     1
102
RTVSPropertyOp57
 70
     1
102
RTVSPost2010Prop28
280
     0
102
RTVSPost2010PropOp28
 70
     1
102
RTVSPost2010Prop29
280
     1
102
RTVSPost2010PropOp29
 70
     1
102
RTVSPost2010Prop30
280
     1
102
RTVSPost2010PropOp30
 70
     1
102
RTVSPost2010Prop31
280
     0
102
RTVSPost2010PropOp31
 70
     1
102
RTVSPost2010Prop32
280
     0
102
RTVSPost2010PropOp32
 70
     1
102
RTVSPost2010Prop33
280
     0
102
RTVSPost2010PropOp33
 70
     1
102
RTVSPost2010Prop34
280
     0
102
RTVSPost2010PropOp34
 70
     1
102
RTVSPost2010Prop35
280
     0
102
RTVSPost2010PropOp35
 70
     1
102
RTVSPost2010Prop36
280
     0
102
RTVSPost2010PropOp36
 70
     1
102
RTVSPost2010Prop37
 90
       50
102
RTVSPost2010PropOp37
 70
     1
102
RTVSPost2010Prop38
140
0.0
102
RTVSPost2010PropOp38
 70
     1
102
RTVSPost2010Prop39
140
1.0
102
RTVSPost2010PropOp39
 70
     1
102
RTVSPost2010Prop40
 90
        0
102
RTVSPost2010PropOp40
 70
     1
102
RTVSPost2010Prop41ColorIndex
 90
       18
102
RTVSPost2010Prop41ColorRGB
 90
        0
102
RTVSPost2010PropOp41
 70
     1
102
RTVSPost2010Prop42
 90
       50
102
RTVSPost2010PropOp42
 70
     1
102
RTVSPost2010Prop43
 90
        3
102
RTVSPost2010PropOp43
 70
     1
102
RTVSPost2010Prop44ColorIndex
 90
        5
102
RTVSPost2010Prop44ColorRGB
 90
      255
102
RTVSPost2010PropOp44
 70
     1
102
RTVSPost2010Prop45
280
     0
102
RTVSPost2010PropOp45
 70
     1
102
RTVSPost2010Prop46
 90
       50
102
RTVSPost2010PropOp46
 70
     1
102
RTVSPost2010Prop47
 90
       50
102
RTVSPost2010PropOp47
 70
     1
102
RTVSPost2010Prop48
 90
       50
102
RTVSPost2010PropOp48
 70
     1
102
RTVSPost2010Prop49
280
     0
102
RTVSPost2010PropOp49
 70
     1
102
RTVSPost2010Prop50
 90
       50
102
RTVSPost2010PropOp50
 70
     1
102
RTVSPost2010Prop51ColorIndex
 90
      256
102
RTVSPost2010Prop51ColorRGB
 90
-16777216
102
RTVSPost2010PropOp51
 70
     0
102
RTVSPost2010Prop52
140
1.0
102
RTVSPost2010PropOp52
 70
     0
102
RTVSPost2010Prop53
 90
        2
102
RTVSPost2010PropOp53
 70
     1
102
RTVSPost2010Prop54
  1
strokes_ogs.tif
102
RTVSPost2010PropOp54
 70
     1
102
RTVSPost2010Prop55
280
     0
102
RTVSPost2010PropOp55
 70
     1
102
RTVSPost2010Prop56
140
1.0
102
RTVSPost2010PropOp56
 70
     1
102
RTVSPost2010Prop57
140
1.0
102
RTVSPost2010PropOp57
 70
     1
  0
ENDSEC
  0
EOF
